  0
SECTION
  2
HEADER
  9
$ACADVER
  1
AC1018
  9
$ACADMAINTVER
 70
     0
  9
$DWGCODEPAGE
  3
ANSI_1252
  9
$INSBASE
 10
0.0
 20
0.0
 30
0.0
  9
$EXTMIN
 10
21.0
 20
21.0
 30
0.0
  9
$EXTMAX
 10
431.0
 20
307.0
 30
0.0
  9
$LIMMIN
 10
0.0
 20
0.0
  9
$LIMMAX
 10
12.0
 20
9.0
  9
$ORTHOMODE
 70
     0
  9
$REGENMODE
 70
     1
  9
$FILLMODE
 70
     1
  9
$QTEXTMODE
 70
     0
  9
$MIRRTEXT
 70
     1
  9
$LTSCALE
 40
1.0
  9
$ATTMODE
 70
     1
  9
$TEXTSIZE
 40
0.2
  9
$TRACEWID
 40
0.05
  9
$TEXTSTYLE
  7
Standard
  9
$CLAYER
  8
0
  9
$CELTYPE
  6
ByLayer
  9
$CECOLOR
 62
   256
  9
$CELTSCALE
 40
1.0
  9
$DISPSILH
 70
     0
  9
$DIMSCALE
 40
1.0
  9
$DIMASZ
 40
0.18
  9
$DIMEXO
 40
0.0625
  9
$DIMDLI
 40
0.38
  9
$DIMRND
 40
0.0
  9
$DIMDLE
 40
0.0
  9
$DIMEXE
 40
0.18
  9
$DIMTP
 40
0.0
  9
$DIMTM
 40
0.0
  9
$DIMTXT
 40
0.18
  9
$DIMCEN
 40
0.09
  9
$DIMTSZ
 40
0.0
  9
$DIMTOL
 70
     0
  9
$DIMLIM
 70
     0
  9
$DIMTIH
 70
     1
  9
$DIMTOH
 70
     1
  9
$DIMSE1
 70
     0
  9
$DIMSE2
 70
     0
  9
$DIMTAD
 70
     0
  9
$DIMZIN
 70
     0
  9
$DIMBLK
  1

  9
$DIMASO
 70
     1
  9
$DIMSHO
 70
     1
  9
$DIMPOST
  1

  9
$DIMAPOST
  1

  9
$DIMALT
 70
     0
  9
$DIMALTD
 70
     2
  9
$DIMALTF
 40
25.4
  9
$DIMLFAC
 40
1.0
  9
$DIMTOFL
 70
     0
  9
$DIMTVP
 40
0.0
  9
$DIMTIX
 70
     0
  9
$DIMSOXD
 70
     0
  9
$DIMSAH
 70
     0
  9
$DIMBLK1
  1

  9
$DIMBLK2
  1

  9
$DIMSTYLE
  2
Standard
  9
$DIMCLRD
 70
     0
  9
$DIMCLRE
 70
     0
  9
$DIMCLRT
 70
     0
  9
$DIMTFAC
 40
1.0
  9
$DIMGAP
 40
0.09
  9
$DIMJUST
 70
     0
  9
$DIMSD1
 70
     0
  9
$DIMSD2
 70
     0
  9
$DIMTOLJ
 70
     1
  9
$DIMTZIN
 70
     0
  9
$DIMALTZ
 70
     0
  9
$DIMALTTZ
 70
     0
  9
$DIMUPT
 70
     0
  9
$DIMDEC
 70
     4
  9
$DIMTDEC
 70
     4
  9
$DIMALTU
 70
     2
  9
$DIMALTTD
 70
     2
  9
$DIMTXSTY
  7
Standard
  9
$DIMAUNIT
 70
     0
  9
$DIMADEC
 70
     0
  9
$DIMALTRND
 40
0.0
  9
$DIMAZIN
 70
     0
  9
$DIMDSEP
 70
    46
  9
$DIMATFIT
 70
     3
  9
$DIMFRAC
 70
     0
  9
$DIMLDRBLK
  1

  9
$DIMLUNIT
 70
     2
  9
$DIMLWD
 70
    -2
  9
$DIMLWE
 70
    -2
  9
$DIMTMOVE
 70
     0
  9
$LUNITS
 70
     2
  9
$LUPREC
 70
     4
  9
$SKETCHINC
 40
0.1
  9
$FILLETRAD
 40
0.5
  9
$AUNITS
 70
     0
  9
$AUPREC
 70
     0
  9
$MENU
  1
.
  9
$ELEVATION
 40
0.0
  9
$PELEVATION
 40
0.0
  9
$THICKNESS
 40
0.0
  9
$LIMCHECK
 70
     0
  9
$CHAMFERA
 40
0.0
  9
$CHAMFERB
 40
0.0
  9
$CHAMFERC
 40
0.0
  9
$CHAMFERD
 40
0.0
  9
$SKPOLY
 70
     0
  9
$TDCREATE
 40
2459327.362547407
  9
$TDUCREATE
 40
2459327.279214074
  9
$TDUPDATE
 40
2459327.362548032
  9
$TDUUPDATE
 40
2459327.279214699
  9
$TDINDWG
 40
0.0000000116
  9
$TDUSRTIMER
 40
0.0000000116
  9
$USRTIMER
 70
     1
  9
$ANGBASE
 50
0.0
  9
$ANGDIR
 70
     0
  9
$PDMODE
 70
     0
  9
$PDSIZE
 40
0.0
  9
$PLINEWID
 40
0.0
  9
$SPLFRAME
 70
     0
  9
$SPLINETYPE
 70
     6
  9
$SPLINESEGS
 70
     8
  9
$HANDSEED
  5
2F2
  9
$SURFTAB1
 70
     6
  9
$SURFTAB2
 70
     6
  9
$SURFTYPE
 70
     6
  9
$SURFU
 70
     6
  9
$SURFV
 70
     6
  9
$UCSBASE
  2

  9
$UCSNAME
  2

  9
$UCSORG
 10
0.0
 20
0.0
 30
0.0
  9
$UCSXDIR
 10
1.0
 20
0.0
 30
0.0
  9
$UCSYDIR
 10
0.0
 20
1.0
 30
0.0
  9
$UCSORTHOREF
  2

  9
$UCSORTHOVIEW
 70
     0
  9
$UCSORGTOP
 10
0.0
 20
0.0
 30
0.0
  9
$UCSORGBOTTOM
 10
0.0
 20
0.0
 30
0.0
  9
$UCSORGLEFT
 10
0.0
 20
0.0
 30
0.0
  9
$UCSORGRIGHT
 10
0.0
 20
0.0
 30
0.0
  9
$UCSORGFRONT
 10
0.0
 20
0.0
 30
0.0
  9
$UCSORGBACK
 10
0.0
 20
0.0
 30
0.0
  9
$PUCSBASE
  2

  9
$PUCSNAME
  2

  9
$PUCSORG
 10
0.0
 20
0.0
 30
0.0
  9
$PUCSXDIR
 10
1.0
 20
0.0
 30
0.0
  9
$PUCSYDIR
 10
0.0
 20
1.0
 30
0.0
  9
$PUCSORTHOREF
  2

  9
$PUCSORTHOVIEW
 70
     0
  9
$PUCSORGTOP
 10
0.0
 20
0.0
 30
0.0
  9
$PUCSORGBOTTOM
 10
0.0
 20
0.0
 30
0.0
  9
$PUCSORGLEFT
 10
0.0
 20
0.0
 30
0.0
  9
$PUCSORGRIGHT
 10
0.0
 20
0.0
 30
0.0
  9
$PUCSORGFRONT
 10
0.0
 20
0.0
 30
0.0
  9
$PUCSORGBACK
 10
0.0
 20
0.0
 30
0.0
  9
$USERI1
 70
     0
  9
$USERI2
 70
     0
  9
$USERI3
 70
     0
  9
$USERI4
 70
     0
  9
$USERI5
 70
     0
  9
$USERR1
 40
19.0
  9
$USERR2
 40
0.0
  9
$USERR3
 40
0.0
  9
$USERR4
 40
0.0
  9
$USERR5
 40
0.0
  9
$WORLDVIEW
 70
     1
  9
$SHADEDGE
 70
     3
  9
$SHADEDIF
 70
    70
  9
$TILEMODE
 70
     1
  9
$MAXACTVP
 70
    64
  9
$PINSBASE
 10
0.0
 20
0.0
 30
0.0
  9
$PLIMCHECK
 70
     0
  9
$PEXTMIN
 10
1.00000000000000E+20
 20
1.00000000000000E+20
 30
1.00000000000000E+20
  9
$PEXTMAX
 10
-1.00000000000000E+20
 20
-1.00000000000000E+20
 30
-1.00000000000000E+20
  9
$PLIMMIN
 10
0.0
 20
0.0
  9
$PLIMMAX
 10
12.0
 20
9.0
  9
$UNITMODE
 70
     0
  9
$VISRETAIN
 70
     1
  9
$PLINEGEN
 70
     0
  9
$PSLTSCALE
 70
     1
  9
$TREEDEPTH
 70
  3020
  9
$CMLSTYLE
  2
Standard
  9
$CMLJUST
 70
     0
  9
$CMLSCALE
 40
1.0
  9
$PROXYGRAPHICS
 70
     1
  9
$MEASUREMENT
 70
     1
  9
$CELWEIGHT
370
    -1
  9
$ENDCAPS
280
     0
  9
$JOINSTYLE
280
     0
  9
$LWDISPLAY
290
     0
  9
$INSUNITS
 70
     4
  9
$HYPERLINKBASE
  1

  9
$STYLESHEET
  1

  9
$XEDIT
290
     1
  9
$CEPSNTYPE
380
     0
  9
$PSTYLEMODE
290
     1
  9
$FINGERPRINTGUID
  2
{9D83E615-AF9B-4815-B881-EC0DE4853933}
  9
$VERSIONGUID
  2
{FAEB1C32-E019-11D5-929B-00C0DF256EC4}
  9
$EXTNAMES
290
     1
  9
$PSVPSCALE
 40
0.0
  9
$OLESTARTUP
290
     0
  9
$SORTENTS
280
   127
  9
$INDEXCTL
280
     0
  9
$HIDETEXT
280
     1
  9
$XCLIPFRAME
290
     0
  9
$HALOGAP
280
     0
  9
$OBSCOLOR
 70
   257
  9
$OBSLTYPE
280
     0
  9
$INTERSECTIONDISPLAY
280
     0
  9
$INTERSECTIONCOLOR
 70
   257
  9
$DIMASSOC
280
     2
  9
$PROJECTNAME
  1

  0
ENDSEC
  0
SECTION
  2
CLASSES
  0
CLASS
  1
ACDBDICTIONARYWDFLT
  2
AcDbDictionaryWithDefault
  3
ObjectDBX Classes
 90
        0
 91
        4
280
     0
281
     0
  0
CLASS
  1
VISUALSTYLE
  2
AcDbVisualStyle
  3
ObjectDBX Classes
 90
     4095
 91
        4
280
     0
281
     0
  0
CLASS
  1
MATERIAL
  2
AcDbMaterial
  3
ObjectDBX Classes
 90
     1153
 91
        4
280
     0
281
     0
  0
CLASS
  1
SCALE
  2
AcDbScale
  3
ObjectDBX Classes
 90
     1153
 91
        4
280
     0
281
     0
  0
CLASS
  1
SUN
  2
AcDbSun
  3
SCENEOE
 90
     1153
 91
        4
280
     0
281
     0
  0
CLASS
  1
DICTIONARYVAR
  2
AcDbDictionaryVar
  3
ObjectDBX Classes
 90
        0
 91
        4
280
     0
281
     0
  0
ENDSEC
  0
SECTION
  2
TABLES
  0
TABLE
  2
VPORT
  5
8
330
0
100
AcDbSymbolTable
 70
     1
  0
VPORT
  5
29
330
8
100
AcDbSymbolTableRecord
100
AcDbViewportTableRecord
  2
*Active
 70
     0
 10
0.0
 20
0.0
 11
1.0
 21
1.0
 12
226.0
 22
164.0
 13
0.0
 23
0.0
 14
0.5
 24
0.5
 15
0.5
 25
0.5
 16
0.0
 26
0.0
 36
1.0
 17
0.0
 27
0.0
 37
0.0
 40
314.6
 41
1.60267857142857
 42
50.0
 43
0.0
 44
0.0
 50
0.0
 51
0.0
 71
     0
 72
   100
 73
     1
 74
     3
 75
     0
 76
     0
 77
     0
 78
     0
281
     0
 65
     1
110
0.0
120
0.0
130
0.0
111
1.0
121
0.0
131
0.0
112
0.0
122
1.0
132
0.0
 79
     0
146
0.0
  0
ENDTAB
  0
TABLE
  2
LTYPE
  5
5
330
0
100
AcDbSymbolTable
 70
     8
  0
LTYPE
  5
14
330
5
100
AcDbSymbolTableRecord
100
AcDbLinetypeTableRecord
  2
ByBlock
 70
     0
  3

 72
    65
 73
     0
 40
0.0
  0
LTYPE
  5
15
330
5
100
AcDbSymbolTableRecord
100
AcDbLinetypeTableRecord
  2
ByLayer
 70
     0
  3

 72
    65
 73
     0
 40
0.0
  0
LTYPE
  5
16
330
5
100
AcDbSymbolTableRecord
100
AcDbLinetypeTableRecord
  2
Continuous
 70
     0
  3
Solid line
 72
    65
 73
     0
 40
0.0
  0
LTYPE
  5
6A
330
5
100
AcDbSymbolTableRecord
100
AcDbLinetypeTableRecord
  2
DASHED
 70
     0
  3
Dashed
 72
    65
 73
     2
 40
15.0
 49
7.0
 74
     0
 49
-8.0
 74
     0
  0
LTYPE
  5
6B
330
5
100
AcDbSymbolTableRecord
100
AcDbLinetypeTableRecord
  2
DOTTED
 70
     0
  3
Dotted
 72
    65
 73
     2
 40
1.0
 49
0.0
 74
     0
 49
-1.0
 74
     0
  0
LTYPE
  5
6C
330
5
100
AcDbSymbolTableRecord
100
AcDbLinetypeTableRecord
  2
DOT_CENTER
 70
     0
  3
Dot_Center
 72
    65
 73
     4
 40
14.0
 49
12.0
 74
     0
 49
-1.0
 74
     0
 49
0.0
 74
     0
 49
-1.0
 74
     0
  0
LTYPE
  5
6D
330
5
100
AcDbSymbolTableRecord
100
AcDbLinetypeTableRecord
  2
LONG_DASHED
 70
     0
  3
Long_Dashed
 72
    65
 73
     2
 40
15.0
 49
10.0
 74
     0
 49
-5.0
 74
     0
  0
LTYPE
  5
6E
330
5
100
AcDbSymbolTableRecord
100
AcDbLinetypeTableRecord
  2
DASH_CENTER
 70
     0
  3
Dash_Center
 72
    65
 73
     4
 40
14.0
 49
11.0
 74
     0
 49
-1.0
 74
     0
 49
1.0
 74
     0
 49
-1.0
 74
     0
  0
LTYPE
  5
6F
330
5
100
AcDbSymbolTableRecord
100
AcDbLinetypeTableRecord
  2
PHANTOM
 70
     0
  3
Phantom
 72
    65
 73
     6
 40
13.0
 49
10.0
 74
     0
 49
-1.0
 74
     0
 49
0.0
 74
     0
 49
-1.0
 74
     0
 49
0.0
 74
     0
 49
-1.0
 74
     0
  0
LTYPE
  5
70
330
5
100
AcDbSymbolTableRecord
100
AcDbLinetypeTableRecord
  2
CENTER_DASH_DASH
 70
     0
  3
Center_Dash_Dash
 72
    65
 73
     6
 40
14.0
 49
9.0
 74
     0
 49
-1.0
 74
     0
 49
1.0
 74
     0
 49
-1.0
 74
     0
 49
1.0
 74
     0
 49
-1.0
 74
     0
  0
ENDTAB
  0
TABLE
  2
LAYER
  5
2
330
0
100
AcDbSymbolTable
 70
     3
  0
LAYER
  5
10
330
2
100
AcDbSymbolTableRecord
100
AcDbLayerTableRecord
  2
0
 70
     0
 62
     7
  6
Continuous
370
    -3
390
F
  0
LAYER
  5
71
330
2
100
AcDbSymbolTableRecord
100
AcDbLayerTableRecord
  2
1
 70
     0
 62
     7
  6
Continuous
370
    -3
390
F
  0
LAYER
  5
72
330
2
100
AcDbSymbolTableRecord
100
AcDbLayerTableRecord
  2
GEZE_Logo
 70
     0
 62
     7
  6
Continuous
370
    -3
390
F
  0
ENDTAB
  0
TABLE
  2
STYLE
  5
3
330
0
100
AcDbSymbolTable
 70
    11
  0
STYLE
  5
11
330
3
100
AcDbSymbolTableRecord
100
AcDbTextStyleTableRecord
  2
Standard
 70
     0
 40
0.0
 41
1.0
 50
0.0
 71
     0
 42
0.2
  3
txt
  4

  0
STYLE
  5
FE
330
3
100
AcDbSymbolTableRecord
100
AcDbTextStyleTableRecord
  2
CONVERTER_11
 70
     0
 40
0.0
 41
0.9
 50
0.0
 71
     0
 42
0.2
  3
txt.shx
  4

  0
STYLE
  5
23C
330
3
100
AcDbSymbolTableRecord
100
AcDbTextStyleTableRecord
  2
CONVERTER_12
 70
     0
 40
0.0
 41
0.81
 50
0.0
 71
     0
 42
0.2
  3
txt.shx
  4

  0
STYLE
  5
23E
330
3
100
AcDbSymbolTableRecord
100
AcDbTextStyleTableRecord
  2
CONVERTER_13
 70
     0
 40
0.0
 41
0.99
 50
0.0
 71
     0
 42
0.2
  3
txt.shx
  4

  0
STYLE
  5
249
330
3
100
AcDbSymbolTableRecord
100
AcDbTextStyleTableRecord
  2
CONVERTER_14
 70
     0
 40
0.0
 41
0.76
 50
0.0
 71
     0
 42
0.2
  3
complex.shx
  4

  0
STYLE
  5
24B
330
3
100
AcDbSymbolTableRecord
100
AcDbTextStyleTableRecord
  2
CONVERTER_15
 70
     0
 40
0.0
 41
0.72
 50
0.0
 71
     0
 42
0.2
  3
txt.shx
  4

  0
STYLE
  5
24E
330
3
100
AcDbSymbolTableRecord
100
AcDbTextStyleTableRecord
  2
CONVERTER_16
 70
     0
 40
0.0
 41
0.675
 50
0.0
 71
     0
 42
0.2
  3
txt.shx
  4

  0
STYLE
  5
261
330
3
100
AcDbSymbolTableRecord
100
AcDbTextStyleTableRecord
  2
CONVERTER_17
 70
     0
 40
0.0
 41
0.765
 50
0.0
 71
     0
 42
0.2
  3
txt.shx
  4

  0
STYLE
  5
267
330
3
100
AcDbSymbolTableRecord
100
AcDbTextStyleTableRecord
  2
CONVERTER_18
 70
     0
 40
0.0
 41
0.63
 50
0.0
 71
     0
 42
0.2
  3
txt.shx
  4

  0
STYLE
  5
29A
330
3
100
AcDbSymbolTableRecord
100
AcDbTextStyleTableRecord
  2
CONVERTER_19
 70
     0
 40
0.0
 41
0.54
 50
0.0
 71
     0
 42
0.2
  3
txt.shx
  4

  0
STYLE
  5
29D
330
3
100
AcDbSymbolTableRecord
100
AcDbTextStyleTableRecord
  2
CONVERTER_20
 70
     0
 40
0.0
 41
0.66696267749507
 50
0.0
 71
     0
 42
0.2
  3
txt.shx
  4

  0
ENDTAB
  0
TABLE
  2
VIEW
  5
6
330
0
100
AcDbSymbolTable
 70
     0
  0
ENDTAB
  0
TABLE
  2
UCS
  5
7
330
0
100
AcDbSymbolTable
 70
     0
  0
ENDTAB
  0
TABLE
  2
APPID
  5
9
330
0
100
AcDbSymbolTable
 70
     1
  0
APPID
  5
12
330
9
100
AcDbSymbolTableRecord
100
AcDbRegAppTableRecord
  2
ACAD
 70
     0
  0
ENDTAB
  0
TABLE
  2
DIMSTYLE
  5
A
330
0
100
AcDbSymbolTable
 70
     5
100
AcDbDimStyleTable
  0
DIMSTYLE
105
27
330
A
100
AcDbSymbolTableRecord
100
AcDbDimStyleTableRecord
  2
Standard
 70
     0
178
     0
340
11
  0
DIMSTYLE
105
157
102
{ACAD_REACTORS
330
158
102
}
330
A
100
AcDbSymbolTableRecord
100
AcDbDimStyleTableRecord
  2
ME10_DIM_10
 70
     0
 41
3.5
 42
0.0
 44
2.0
 47
0.5
 48
0.5
 71
     1
 73
     0
 74
     0
 77
     1
 78
     8
140
3.5
146
0.714286
147
2.0
172
     1
173
     1
174
     1
175
     1
176
     3
177
     3
271
     1
178
     4
271
     1
272
     1
340
FE
  0
DIMSTYLE
105
162
102
{ACAD_REACTORS
330
163
102
}
330
A
100
AcDbSymbolTableRecord
100
AcDbDimStyleTableRecord
  2
ME10_DIM_11
 70
     0
 41
3.5
 42
0.0
 44
2.0
 47
1.0
 48
1.0
 71
     1
 73
     0
 74
     0
 77
     1
 78
     8
140
3.5
146
0.714286
147
2.0
172
     1
173
     1
174
     1
175
     1
176
     3
177
     3
271
     1
178
     4
271
     1
272
     0
340
FE
  0
DIMSTYLE
105
16F
102
{ACAD_REACTORS
330
170
102
}
330
A
100
AcDbSymbolTableRecord
100
AcDbDimStyleTableRecord
  2
ME10_DIM_12
 70
     0
 41
3.5
 42
0.0
 44
2.0
 73
     0
 74
     0
 77
     1
 78
     8
140
3.5
147
2.0
172
     1
173
     1
174
     1
175
     1
176
     3
177
     3
271
     2
178
     4
271
     2
340
FE
  0
DIMSTYLE
105
1C7
102
{ACAD_REACTORS
330
1C8
102
}
330
A
100
AcDbSymbolTableRecord
100
AcDbDimStyleTableRecord
  2
ME10_DIM_13
 70
     0
 41
3.5
 42
0.0
 44
2.0
 73
     0
 74
     0
 77
     1
 78
     8
140
3.5
147
2.0
172
     1
173
     1
174
     1
175
     1
176
     3
177
     3
271
     2
178
     4
271
     2
340
FE
  0
ENDTAB
  0
TABLE
  2
BLOCK_RECORD
  5
1
330
0
100
AcDbSymbolTable
 70
    16
  0
BLOCK_RECORD
  5
1F
330
1
100
AcDbSymbolTableRecord
100
AcDbBlockTableRecord
  2
*Model_Space
340
22
  0
BLOCK_RECORD
  5
1B
330
1
100
AcDbSymbolTableRecord
100
AcDbBlockTableRecord
  2
*Paper_Space
340
1E
  0
BLOCK_RECORD
  5
23
330
1
100
AcDbSymbolTableRecord
100
AcDbBlockTableRecord
  2
*Paper_Space0
340
26
  0
BLOCK_RECORD
  5
73
330
1
100
AcDbSymbolTableRecord
100
AcDbBlockTableRecord
  2
70710-2-0511__1
340
0
102
{BLKREFS
331
77
102
}
  0
BLOCK_RECORD
  5
76
330
1
100
AcDbSymbolTableRecord
100
AcDbBlockTableRecord
  2
AllgA
340
0
102
{BLKREFS
331
97
102
}
  0
BLOCK_RECORD
  5
7A
330
1
100
AcDbSymbolTableRecord
100
AcDbBlockTableRecord
  2
Tabelle
340
0
102
{BLKREFS
331
98
102
}
  0
BLOCK_RECORD
  5
7D
330
1
100
AcDbSymbolTableRecord
100
AcDbBlockTableRecord
  2
70710-2-0511__2
340
0
102
{BLKREFS
331
81
102
}
  0
BLOCK_RECORD
  5
80
330
1
100
AcDbSymbolTableRecord
100
AcDbBlockTableRecord
  2
SA_RechtsA
340
0
102
{BLKREFS
331
99
102
}
  0
BLOCK_RECORD
  5
84
330
1
100
AcDbSymbolTableRecord
100
AcDbBlockTableRecord
  2
70710-2-0511__3
340
0
102
{BLKREFS
331
88
102
}
  0
BLOCK_RECORD
  5
87
330
1
100
AcDbSymbolTableRecord
100
AcDbBlockTableRecord
  2
VordansA
340
0
102
{BLKREFS
331
9A
102
}
  0
BLOCK_RECORD
  5
8B
330
1
100
AcDbSymbolTableRecord
100
AcDbBlockTableRecord
  2
GEZE-Logo
340
0
102
{BLKREFS
331
8F
102
}
  0
BLOCK_RECORD
  5
8E
330
1
100
AcDbSymbolTableRecord
100
AcDbBlockTableRecord
  2
a3_gr
340
0
102
{BLKREFS
331
93
102
}
  0
BLOCK_RECORD
  5
92
330
1
100
AcDbSymbolTableRecord
100
AcDbBlockTableRecord
  2
Rahmen
340
0
102
{BLKREFS
331
9B
102
}
  0
BLOCK_RECORD
  5
96
330
1
100
AcDbSymbolTableRecord
100
AcDbBlockTableRecord
  2
1
340
0
102
{BLKREFS
331
9E
102
}
  0
BLOCK_RECORD
  5
14E
330
1
100
AcDbSymbolTableRecord
100
AcDbBlockTableRecord
  2
*D12
340
0
  0
BLOCK_RECORD
  5
159
330
1
100
AcDbSymbolTableRecord
100
AcDbBlockTableRecord
  2
*D13
340
0
  0
BLOCK_RECORD
  5
164
330
1
100
AcDbSymbolTableRecord
100
AcDbBlockTableRecord
  2
*D14
340
0
  0
BLOCK_RECORD
  5
1BE
330
1
100
AcDbSymbolTableRecord
100
AcDbBlockTableRecord
  2
*D15
340
0
  0
ENDTAB
  0
ENDSEC
  0
SECTION
  2
BLOCKS
  0
BLOCK
  5
20
330
1F
100
AcDbEntity
  8
0
100
AcDbBlockBegin
  2
*Model_Space
 70
     0
 10
0.0
 20
0.0
 30
0.0
  3
*Model_Space
  1
*Model_Space
  0
ENDBLK
  5
21
330
1F
100
AcDbEntity
  8
0
100
AcDbBlockEnd
  0
BLOCK
  5
1C
330
1B
100
AcDbEntity
 67
     1
  8
0
100
AcDbBlockBegin
  2
*Paper_Space
 70
     0
 10
0.0
 20
0.0
 30
0.0
  3
*Paper_Space
  1
*Paper_Space
  0
ENDBLK
  5
1D
330
1B
100
AcDbEntity
 67
     1
  8
0
100
AcDbBlockEnd
  0
BLOCK
  5
24
330
23
100
AcDbEntity
  8
0
100
AcDbBlockBegin
  2
*Paper_Space0
 70
     0
 10
0.0
 20
0.0
 30
0.0
  3
*Paper_Space0
  1
*Paper_Space0
  0
ENDBLK
  5
25
330
23
100
AcDbEntity
  8
0
100
AcDbBlockEnd
  0
BLOCK
  5
74
330
73
100
AcDbEntity
  8
0
100
AcDbBlockBegin
  2
70710-2-0511__1
 70
     0
 10
108.212813680177
 20
92.84991746623189
 30
0.0
  3
70710-2-0511__1
  1
70710-2-0511__1
  0
LINE
  5
9F
330
73
100
AcDbEntity
  8
0
  6
Continuous
 62
     2
100
AcDbLine
 10
131.2160778270954
 20
175.7603157341728
 30
0.0
 11
272.6819767258488
 21
213.7208216648186
 31
0.0
  0
LINE
  5
A0
330
73
100
AcDbEntity
  8
0
  6
Continuous
 62
     1
100
AcDbLine
 10
130.9184374780251
 20
174.8500492086773
 30
0.0
 11
114.3628375838466
 21
182.2251287682552
 31
0.0
  0
LINE
  5
A1
330
73
100
AcDbEntity
  8
0
  6
Continuous
 62
     2
100
AcDbLine
 10
131.1516789469245
 20
174.8274080287831
 30
0.0
 11
131.2160778270954
 21
175.7603157341728
 31
0.0
  0
LINE
  5
A2
330
73
100
AcDbEntity
  8
0
  6
Continuous
 62
     1
100
AcDbLine
 10
130.9184374780251
 20
174.8500492086773
 30
0.0
 11
130.9828363581958
 21
175.782956914067
 31
0.0
  0
LINE
  5
A3
330
73
100
AcDbEntity
  8
0
  6
Continuous
 62
     1
100
AcDbLine
 10
131.2008412346281
 20
174.8257429712142
 30
0.0
 11
130.9239375212941
 21
174.7514395162186
 31
0.0
  0
LINE
  5
A4
330
73
100
AcDbEntity
  8
0
  6
Continuous
 62
     1
100
AcDbLine
 10
131.1516789469245
 20
174.8274080287831
 30
0.0
 11
130.9184374780251
 21
174.8500492086773
 31
0.0
  0
LINE
  5
A5
330
73
100
AcDbEntity
  8
0
  6
Continuous
 62
     1
100
AcDbLine
 10
130.9828363581958
 20
175.782956914067
 30
0.0
 11
114.4272364640174
 21
183.1580364736449
 31
0.0
  0
LINE
  5
A6
330
73
100
AcDbEntity
  8
0
  6
Continuous
 62
     1
100
AcDbLine
 10
130.9239375212941
 20
174.7514395162186
 30
0.0
 11
114.3587623457912
 21
182.1307846090315
 31
0.0
  0
LINE
  5
A7
330
73
100
AcDbEntity
  8
0
  6
Continuous
 62
     1
100
AcDbLine
 10
131.2160778270954
 20
175.7603157341728
 30
0.0
 11
130.9828363581958
 21
175.782956914067
 31
0.0
  0
LINE
  5
A8
330
73
100
AcDbEntity
  8
0
  6
Continuous
 62
     1
100
AcDbLine
 10
114.3628375838466
 20
182.2251287682552
 30
0.0
 11
114.4272364640174
 21
183.1580364736449
 31
0.0
  0
LINE
  5
A9
330
73
100
AcDbEntity
  8
0
  6
Continuous
 62
     2
100
AcDbLine
 10
273.9111790068601
 20
186.9441209923282
 30
0.0
 11
272.5570576935799
 21
211.2220184061784
 31
0.0
  0
LINE
  5
AA
330
73
100
AcDbEntity
  8
0
  6
Continuous
 62
     1
100
AcDbLine
 10
272.6764195690282
 20
213.8045589233174
 30
0.0
 11
253.4122310656596
 21
222.3862426902106
 31
0.0
  0
LINE
  5
AB
330
73
100
AcDbEntity
  8
0
  6
Continuous
 62
     1
100
AcDbLine
 10
272.6819767258488
 20
213.7208216648186
 30
0.0
 11
272.6764195690282
 21
213.8045589233174
 31
0.0
  0
LINE
  5
AC
330
73
100
AcDbEntity
  8
0
  6
Continuous
 62
     1
100
AcDbLine
 10
274.551990269401
 20
187.3256408014483
 30
0.0
 11
273.1714572351888
 21
212.0766073560727
 31
0.0
  0
LINE
  5
AD
330
73
100
AcDbEntity
  8
0
  6
Continuous
 62
     1
100
AcDbLine
 10
112.9292089430958
 20
179.9608773144632
 30
0.0
 11
114.1546178011634
 21
179.4755570097752
 31
0.0
  0
LINE
  5
AE
330
73
100
AcDbEntity
  8
0
  6
Continuous
 62
     1
100
AcDbLine
 10
112.1961847154144
 20
179.7641799424546
 30
0.0
 11
113.5428991468282
 21
179.230816849901
 31
0.0
  0
LINE
  5
AF
330
73
100
AcDbEntity
  8
0
  6
Continuous
 62
     2
100
AcDbLine
 10
113.5428991468282
 20
179.230816849901
 30
0.0
 11
114.0908853052627
 21
179.3778616994308
 31
0.0
  0
LINE
  5
B0
330
73
100
AcDbEntity
  8
0
  6
Continuous
 62
     1
100
AcDbLine
 10
112.6293130777617
 20
179.9838426147018
 30
0.0
 11
111.8962888500802
 21
179.7871452426933
 31
0.0
  0
LINE
  5
B1
330
73
100
AcDbEntity
  8
0
  6
Continuous
 62
     2
100
AcDbLine
 10
112.9292089430958
 20
179.9608773144632
 30
0.0
 11
112.1961847154144
 21
179.7641799424546
 31
0.0
  0
LINE
  5
B2
330
73
100
AcDbEntity
  8
0
  6
Continuous
 62
     2
100
AcDbLine
 10
133.7955713934737
 20
173.9872058849622
 30
0.0
 11
272.5570576935799
 21
211.2220184061784
 31
0.0
  0
LINE
  5
B3
330
73
100
AcDbEntity
  8
0
  6
Continuous
 62
     1
100
AcDbLine
 10
206.1171753776382
 20
210.4180924714838
 30
0.0
 11
120.6668605893623
 21
187.4886288583666
 31
0.0
  0
LINE
  5
B4
330
73
100
AcDbEntity
  8
0
  6
Continuous
 62
     2
100
AcDbLine
 10
206.9074113945516
 20
210.3906429700845
 30
0.0
 11
121.1708933332515
 21
187.3843804879282
 31
0.0
  0
LINE
  5
B5
330
73
100
AcDbEntity
  8
0
  6
Continuous
 62
     1
100
AcDbLine
 10
253.4122310656596
 20
222.3862426902106
 30
0.0
 11
217.3102867565482
 21
212.6987626563496
 31
0.0
  0
LINE
  5
B6
330
73
100
AcDbEntity
  8
0
  6
Continuous
 62
     1
100
AcDbLine
 10
114.4934754229748
 20
182.166933084425
 30
0.0
 11
114.3587623457912
 21
182.1307846090315
 31
0.0
  0
LINE
  5
B7
330
73
100
AcDbEntity
  8
0
  6
Continuous
 62
     1
100
AcDbLine
 10
114.262608843187
 20
179.9047744382411
 30
0.0
 11
114.3587623457912
 21
182.1307846090315
 31
0.0
  0
LINE
  5
B8
330
73
100
AcDbEntity
  8
0
  6
Continuous
 62
     1
100
AcDbLine
 10
217.2544096811643
 20
212.2004142325123
 30
0.0
 11
218.6087039857594
 21
211.5971121288546
 31
0.0
  0
LINE
  5
B9
330
73
100
AcDbEntity
  8
0
  6
Continuous
 62
     2
100
AcDbLine
 10
218.5747237565216
 20
211.1048610586069
 30
0.0
 11
218.6087039857594
 21
211.5971121288546
 31
0.0
  0
LINE
  5
BA
330
73
100
AcDbEntity
  8
0
  6
Continuous
 62
     1
100
AcDbLine
 10
218.5528269103754
 20
211.0987637050173
 30
0.0
 11
211.8376826779803
 21
209.2968434228621
 31
0.0
  0
LINE
  5
BB
330
73
100
AcDbEntity
  8
0
  6
Continuous
 62
     1
100
AcDbLine
 10
217.1900108009933
 20
211.2675065271226
 30
0.0
 11
217.9387203662215
 21
210.9339763230908
 31
0.0
  0
LINE
  5
BC
330
73
100
AcDbEntity
  8
0
  6
Continuous
 62
     1
100
AcDbLine
 10
122.5995011855077
 20
185.3509557979618
 30
0.0
 11
121.1064944530806
 21
186.4514727825385
 31
0.0
  0
LINE
  5
BD
330
73
100
AcDbEntity
  8
0
  6
Continuous
 62
     2
100
AcDbLine
 10
121.5684978532723
 20
186.1109233544615
 30
0.0
 11
120.8361854226411
 21
185.9144169837923
 31
0.0
  0
LINE
  5
BE
330
73
100
AcDbEntity
  8
0
  6
Continuous
 62
     2
100
AcDbLine
 10
120.8361854226411
 20
185.9144169837923
 30
0.0
 11
120.1572032815867
 21
186.1833262685627
 31
0.0
  0
LINE
  5
BF
330
73
100
AcDbEntity
  8
0
  6
Continuous
 62
     1
100
AcDbLine
 10
120.4057370453018
 20
184.7622881593084
 30
0.0
 11
120.1572032815867
 21
186.1833262685627
 31
0.0
  0
LINE
  5
C0
330
73
100
AcDbEntity
  8
0
  6
Continuous
 62
     1
100
AcDbLine
 10
123.2182520326655
 20
185.8752426030889
 30
0.0
 11
121.1708933332515
 21
187.3843804879282
 31
0.0
  0
LINE
  5
C1
330
73
100
AcDbEntity
  8
0
  6
Continuous
 62
     1
100
AcDbLine
 10
121.0093594416263
 20
184.9242622586066
 30
0.0
 11
120.8361854226411
 21
185.9144169837923
 31
0.0
  0
LINE
  5
C2
330
73
100
AcDbEntity
  8
0
  6
Continuous
 62
     2
100
AcDbLine
 10
121.1708933332515
 20
187.3843804879282
 30
0.0
 11
121.1064944530806
 21
186.4514727825385
 31
0.0
  0
LINE
  5
C3
330
73
100
AcDbEntity
  8
0
  6
Continuous
 62
     2
100
AcDbLine
 10
123.1944950449913
 20
185.5310894625482
 30
0.0
 11
123.2182520326655
 21
185.8752426030889
 31
0.0
  0
LINE
  5
C4
330
73
100
AcDbEntity
  8
0
  6
Continuous
 62
     1
100
AcDbLine
 10
210.6277470722212
 20
209.3304263659162
 30
0.0
 11
206.9074113945516
 21
210.3906429700845
 31
0.0
  0
LINE
  5
C5
330
73
100
AcDbEntity
  8
0
  6
Continuous
 62
     1
100
AcDbLine
 10
123.0120935727983
 20
185.4616695168623
 30
0.0
 11
114.4272364640174
 21
183.1580364736449
 31
0.0
  0
LINE
  5
C6
330
73
100
AcDbEntity
  8
0
  6
Continuous
 62
     1
100
AcDbLine
 10
216.9254091370291
 20
211.5330702938241
 30
0.0
 11
216.9898080172
 21
212.4659779992138
 31
0.0
  0
LINE
  5
C7
330
73
100
AcDbEntity
  8
0
  6
Continuous
 62
     2
100
AcDbLine
 10
217.2544096811643
 20
212.2004142325123
 30
0.0
 11
217.1900108009933
 21
211.2675065271226
 31
0.0
  0
LINE
  5
C8
330
73
100
AcDbEntity
  8
0
  6
Continuous
 62
     1
100
AcDbLine
 10
133.5448482620715
 20
174.0371515977765
 30
0.0
 11
133.7955713934737
 21
173.9872058849622
 31
0.0
  0
LINE
  5
C9
330
73
100
AcDbEntity
  8
0
  6
Continuous
 62
     1
100
AcDbLine
 10
138.3086844430628
 20
93.07208065912928
 30
0.0
 11
226.477585905402
 21
116.7310411076472
 31
0.0
  0
LINE
  5
CA
330
73
100
AcDbEntity
  8
0
  6
Continuous
 62
     1
100
AcDbLine
 10
116.4899435712167
 20
96.73307740562308
 30
0.0
 11
135.4865509603034
 21
92.9488270582579
 31
0.0
  0
LINE
  5
CB
330
73
100
AcDbEntity
  8
0
  6
Continuous
 62
     1
100
AcDbLine
 10
111.4764750190555
 20
179.0902223541145
 30
0.0
 11
108.2668196192088
 21
104.7848109932382
 31
0.0
  0
LINE
  5
CC
330
73
100
AcDbEntity
  8
0
  6
Continuous
 62
     1
100
AcDbLine
 10
111.4580925479591
 20
98.72593020383368
 30
0.0
 11
116.4899435712167
 21
96.73307740562308
 31
0.0
  0
LINE
  5
CD
330
73
100
AcDbEntity
  8
0
  6
Continuous
 62
     2
100
AcDbLine
 10
130.9239375212941
 20
174.7514395162186
 30
0.0
 11
135.4865509603034
 21
92.9488270582579
 31
0.0
  0
LINE
  5
CE
330
73
100
AcDbEntity
  8
0
  6
Continuous
 62
     2
100
AcDbLine
 10
133.7955713934737
 20
173.9872058849622
 30
0.0
 11
138.3086844430628
 21
93.07208065912928
 31
0.0
  0
LINE
  5
CF
330
73
100
AcDbEntity
  8
0
  6
Continuous
 62
     2
100
AcDbLine
 10
166.1436374599587
 20
160.7871823607133
 30
0.0
 11
165.4655949462605
 21
160.9222529322862
 31
0.0
  0
LINE
  5
D0
330
73
100
AcDbEntity
  8
0
  6
Continuous
 62
     2
100
AcDbLine
 10
148.5874373547616
 20
149.4444257090721
 30
0.0
 11
149.2654798684598
 21
149.3093551374991
 31
0.0
  0
LINE
  5
D1
330
73
100
AcDbEntity
  8
0
  6
Continuous
 62
     1
100
AcDbLine
 10
165.9774102448259
 20
161.6406500080057
 30
0.0
 11
166.7115230194793
 21
164.6130092668758
 31
0.0
  0
LINE
  5
D2
330
73
100
AcDbEntity
  8
0
  6
Continuous
 62
     1
100
AcDbLine
 10
166.6554527585241
 20
161.5055794364328
 30
0.0
 11
167.3895655331776
 21
164.4779386953028
 31
0.0
  0
LINE
  5
D3
330
73
100
AcDbEntity
  8
0
  6
Continuous
 62
     2
100
AcDbLine
 10
167.3895655331776
 20
164.4779386953028
 30
0.0
 11
166.7115230194793
 21
164.6130092668758
 31
0.0
  0
LINE
  5
D4
330
73
100
AcDbEntity
  8
0
  6
Continuous
 62
     2
100
AcDbLine
 10
165.9774102448259
 20
161.6406500080057
 30
0.0
 11
166.6554527585241
 21
161.5055794364328
 31
0.0
  0
SPLINE
  5
D5
330
73
100
AcDbEntity
  8
0
  6
Continuous
 62
     1
100
AcDbSpline
210
0.0
220
0.0
230
1.0
 70
     8
 71
     3
 72
     9
 73
     5
 74
     3
 42
0.000000001
 43
0.0000000001
 44
0.00000001
 40
0.0
 40
0.0
 40
0.0
 40
0.0
 40
0.4765253363481071
 40
0.8546257358712748
 40
0.8546257358712748
 40
0.8546257358712748
 40
0.8546257358712748
 10
114.262608843187
 20
179.9047744382411
 30
0.0
 10
114.2436609354718
 20
179.7365824656302
 30
0.0
 10
114.2096787393154
 20
179.434938096444
 30
0.0
 10
113.9553251880907
 20
179.2775032806073
 30
0.0
 10
113.8427950121623
 20
179.2078515496624
 30
0.0
 11
114.262608843187
 21
179.9047744382411
 31
0.0
 11
114.1372517602136
 21
179.4450332057341
 31
0.0
 11
113.8427950121623
 21
179.2078515496624
 31
0.0
  0
SPLINE
  5
D6
330
73
100
AcDbEntity
  8
0
  6
Continuous
 62
     1
100
AcDbSpline
210
0.0
220
0.0
230
1.0
 70
     8
 71
     3
 72
    13
 73
     9
 74
     7
 42
0.000000001
 43
0.0000000001
 44
0.00000001
 40
0.0
 40
0.0
 40
0.0
 40
0.0
 40
16.31993358977283
 40
32.53350110958363
 40
48.23572540761624
 40
63.09797334144426
 40
76.93176951793595
 40
89.75216048477641
 40
89.75216048477641
 40
89.75216048477641
 40
89.75216048477641
 10
273.9111790068601
 20
186.9441209923282
 30
0.0
 10
273.2643196772556
 20
181.5295050979973
 30
0.0
 10
271.9748169453197
 20
170.7355633702077
 30
0.0
 10
266.6968332431147
 20
155.429445993057
 30
0.0
 10
259.2750795017948
 20
141.6208697339972
 30
0.0
 10
249.8012862915664
 20
130.1675288297169
 30
0.0
 10
238.9082263220052
 20
121.2794013230243
 30
0.0
 10
230.5147581264436
 20
118.2082388090132
 30
0.0
 10
226.477585905402
 20
116.7310411076472
 30
0.0
 11
273.9111790068601
 21
186.9441209923282
 31
0.0
 11
271.3993001917971
 21
170.8186536462962
 31
0.0
 11
266.2353222773783
 21
155.4494277771928
 31
0.0
 11
258.7003651239129
 21
141.6732066464334
 31
0.0
 11
249.2046778829317
 21
130.2399946061242
 31
0.0
 11
238.2652209446019
 21
121.7722795267451
 31
0.0
 11
226.477585905402
 21
116.7310411076472
 31
0.0
  0
SPLINE
  5
D7
330
73
100
AcDbEntity
  8
0
  6
Continuous
 62
     1
100
AcDbSpline
210
0.0
220
0.0
230
1.0
 70
     8
 71
     3
 72
    11
 73
     7
 74
     5
 42
0.000000001
 43
0.0000000001
 44
0.00000001
 40
0.0
 40
0.0
 40
0.0
 40
0.0
 40
0.1824281496507714
 40
0.4665280349867683
 40
0.7049208511767623
 40
1.09579035145103
 40
1.09579035145103
 40
1.09579035145103
 40
1.09579035145103
 10
273.1714572351888
 20
212.0766073560727
 30
0.0
 10
273.1683232499422
 20
212.015314125215
 30
0.0
 10
273.1603086148875
 20
211.8585674267577
 30
0.0
 10
273.0383946270902
 20
211.6475015325683
 30
0.0
 10
272.834580014681
 20
211.4212929623312
 30
0.0
 10
272.6633920043735
 20
211.29837162037
 30
0.0
 10
272.5570576935799
 20
211.2220184061784
 30
0.0
 11
273.1714572351888
 21
212.0766073560727
 31
0.0
 11
273.1509434995096
 21
211.8953362396869
 31
0.0
 11
273.0227349282216
 21
211.6418104796651
 31
0.0
 11
272.8641886651601
 21
211.4637817786342
 31
0.0
 11
272.5570576935799
 21
211.2220184061784
 31
0.0
  0
SPLINE
  5
D8
330
73
100
AcDbEntity
  8
0
  6
Continuous
 62
     1
100
AcDbSpline
210
0.0
220
0.0
230
1.0
 70
     8
 71
     3
 72
    17
 73
    13
 74
    11
 42
0.000000001
 43
0.0000000001
 44
0.00000001
 40
0.0
 40
0.0
 40
0.0
 40
0.0
 40
0.159031526068454
 40
0.3156617521487883
 40
0.499168810130622
 40
0.7743186085582339
 40
1.122344038051345
 40
1.526811790159149
 40
2.008588199947605
 40
2.408766565078866
 40
2.475764599857005
 40
2.553757062429069
 40
2.553757062429069
 40
2.553757062429069
 40
2.553757062429069
 10
272.5570576935799
 20
211.2220184061784
 30
0.0
 10
272.5758045804871
 20
211.271610443636
 30
0.0
 10
272.6130152721091
 20
211.3700457072696
 30
0.0
 10
272.6643181538269
 20
211.5283888345733
 30
0.0
 10
272.7203065350589
 20
211.7257479384863
 30
0.0
 10
272.7791360544772
 20
211.9883295352682
 30
0.0
 10
272.8301841779075
 20
212.3274197040951
 30
0.0
 10
272.8547839593328
 20
212.7387838970981
 30
0.0
 10
272.8316846447716
 20
213.1681337311125
 30
0.0
 10
272.7689715806373
 20
213.4800131531122
 30
0.0
 10
272.7108182226397
 20
213.6522896266596
 30
0.0
 10
272.6920645853367
 20
213.6968513045636
 30
0.0
 10
272.6819767258488
 20
213.7208216648186
 30
0.0
 11
272.5570576935799
 21
211.2220184061784
 31
0.0
 11
272.6120881305364
 21
211.3712252269223
 31
0.0
 11
272.6607061095872
 21
211.5201188758983
 31
0.0
 11
272.7106409001763
 21
211.6967013136953
 31
0.0
 11
272.7709964904335
 21
211.9651498468955
 31
0.0
 11
272.8225927378519
 21
212.3093293454524
 31
0.0
 11
272.8462494999245
 21
212.7131046793191
 31
0.0
 11
272.817552732071
 21
213.19402567525
 31
0.0
 11
272.7330411711881
 21
213.585178481415
 31
0.0
 11
272.7112890656028
 21
213.6485471081592
 31
0.0
 11
272.6819767258488
 21
213.7208216648186
 31
0.0
  0
SPLINE
  5
D9
330
73
100
AcDbEntity
  8
0
  6
Continuous
 62
     1
100
AcDbSpline
210
0.0
220
0.0
230
1.0
 70
     8
 71
     3
 72
    11
 73
     7
 74
     5
 42
0.000000001
 43
0.0000000001
 44
0.00000001
 40
0.0
 40
0.0
 40
0.0
 40
0.0
 40
0.1439024984861456
 40
0.2763216088163123
 40
0.4694492236059269
 40
0.6470710422404689
 40
0.6470710422404689
 40
0.6470710422404689
 40
0.6470710422404689
 10
272.8442552632936
 20
212.6149073677311
 30
0.0
 10
272.8806041860852
 20
212.5834742096772
 30
0.0
 10
272.9504013857569
 20
212.5231162422425
 30
0.0
 10
273.0525297196766
 20
212.4045085851564
 30
0.0
 10
273.1426392883522
 20
212.2586891212525
 30
0.0
 10
273.162122877367
 20
212.1355850920367
 30
0.0
 10
273.1714572351888
 20
212.0766073560727
 30
0.0
 11
272.8442552632936
 21
212.6149073677311
 31
0.0
 11
272.9506757214285
 21
212.5180434676202
 31
0.0
 11
273.0372508085609
 21
212.4178457857328
 31
0.0
 11
273.1326866850931
 21
212.2499462020103
 31
0.0
 11
273.1714572351888
 21
212.0766073560727
 31
0.0
  0
SPLINE
  5
DA
330
73
100
AcDbEntity
  8
0
  6
Continuous
 62
     1
100
AcDbSpline
210
0.0
220
0.0
230
1.0
 70
     8
 71
     3
 72
     9
 73
     5
 74
     3
 42
0.000000001
 43
0.0000000001
 44
0.00000001
 40
0.0
 40
0.0
 40
0.0
 40
0.0
 40
0.3781003995232035
 40
0.8546257358713379
 40
0.8546257358713379
 40
0.8546257358713379
 40
0.8546257358713379
 10
111.8962888500802
 20
179.7871452426933
 30
0.0
 10
111.7837586741518
 20
179.7174935117484
 30
0.0
 10
111.5294051229271
 20
179.5600586959117
 30
0.0
 10
111.4954229267706
 20
179.2584143267253
 30
0.0
 10
111.4764750190555
 20
179.0902223541145
 30
0.0
 11
111.8962888500802
 21
179.7871452426933
 31
0.0
 11
111.6018321020289
 21
179.5499635866215
 31
0.0
 11
111.4764750190555
 21
179.0902223541145
 31
0.0
  0
SPLINE
  5
DB
330
73
100
AcDbEntity
  8
0
  6
Continuous
 62
     1
100
AcDbSpline
210
0.0
220
0.0
230
1.0
 70
     8
 71
     3
 72
     9
 73
     5
 74
     3
 42
0.000000001
 43
0.0000000001
 44
0.00000001
 40
0.0
 40
0.0
 40
0.0
 40
0.0
 40
0.1570240788383963
 40
0.3047361104714603
 40
0.3047361104714603
 40
0.3047361104714603
 40
0.3047361104714603
 10
112.1961847154144
 20
179.7641799424546
 30
0.0
 10
112.1455668483332
 20
179.7805893678995
 30
0.0
 10
112.0473329182205
 20
179.8124350662479
 30
0.0
 10
111.9456006364539
 20
179.7954016896996
 30
0.0
 10
111.8962888500802
 20
179.7871452426933
 30
0.0
 11
112.1961847154144
 21
179.7641799424546
 31
0.0
 11
112.043402256474
 21
179.8004302125253
 31
0.0
 11
111.8962888500802
 21
179.7871452426933
 31
0.0
  0
SPLINE
  5
DC
330
73
100
AcDbEntity
  8
0
  6
Continuous
 62
     1
100
AcDbSpline
210
0.0
220
0.0
230
1.0
 70
     8
 71
     3
 72
     9
 73
     5
 74
     3
 42
0.000000001
 43
0.0000000001
 44
0.00000001
 40
0.0
 40
0.0
 40
0.0
 40
0.0
 40
0.1477120316330176
 40
0.3047361104713651
 40
0.3047361104713651
 40
0.3047361104713651
 40
0.3047361104713651
 10
113.8427950121623
 20
179.2078515496624
 30
0.0
 10
113.7934832257886
 20
179.199595102656
 30
0.0
 10
113.6917509440221
 20
179.1825617261075
 30
0.0
 10
113.5935170139094
 20
179.2144074244561
 30
0.0
 10
113.5428991468282
 20
179.230816849901
 30
0.0
 11
113.8427950121623
 21
179.2078515496624
 31
0.0
 11
113.6956816057685
 21
179.1945665798303
 31
0.0
 11
113.5428991468282
 21
179.230816849901
 31
0.0
  0
SPLINE
  5
DD
330
73
100
AcDbEntity
  8
0
  6
Continuous
 62
     1
100
AcDbSpline
210
0.0
220
0.0
230
1.0
 70
     8
 71
     3
 72
     9
 73
     5
 74
     3
 42
0.000000001
 43
0.0000000001
 44
0.00000001
 40
0.0
 40
0.0
 40
0.0
 40
0.0
 40
0.512736018111772
 40
0.7687314294018301
 40
0.7687314294018301
 40
0.7687314294018301
 40
0.7687314294018301
 10
273.9111790068601
 20
186.9441209923282
 30
0.0
 10
274.0879782203287
 20
186.9814343269629
 30
0.0
 10
274.3530485513828
 20
187.0373772311708
 30
0.0
 10
274.5022910121623
 20
187.253627312551
 30
0.0
 10
274.551990269401
 20
187.3256408014483
 30
0.0
 11
273.9111790068601
 21
186.9441209923282
 31
0.0
 11
274.3900476689615
 21
187.1273777285333
 31
0.0
 11
274.551990269401
 21
187.3256408014483
 31
0.0
  0
SPLINE
  5
DE
330
73
100
AcDbEntity
  8
0
  6
Continuous
 62
     1
100
AcDbSpline
210
0.0
220
0.0
230
1.0
 70
     8
 71
     3
 72
     9
 73
     5
 74
     3
 42
0.000000001
 43
0.0000000001
 44
0.00000001
 40
0.0
 40
0.0
 40
0.0
 40
0.0
 40
0.1477120316330125
 40
0.3047361104713607
 40
0.3047361104713607
 40
0.3047361104713607
 40
0.3047361104713607
 10
112.6293130777617
 20
179.9838426147018
 30
0.0
 10
112.6786248641354
 20
179.9920990617082
 30
0.0
 10
112.7803571459019
 20
180.0091324382566
 30
0.0
 10
112.8785910760146
 20
179.977286739908
 30
0.0
 10
112.9292089430958
 20
179.9608773144632
 30
0.0
 11
112.6293130777617
 21
179.9838426147018
 31
0.0
 11
112.7764264841555
 21
179.9971275845338
 31
0.0
 11
112.9292089430958
 21
179.9608773144632
 31
0.0
  0
SPLINE
  5
DF
330
73
100
AcDbEntity
  8
0
  6
Continuous
 62
     1
100
AcDbSpline
210
0.0
220
0.0
230
1.0
 70
     8
 71
     3
 72
     9
 73
     5
 74
     3
 42
0.000000001
 43
0.0000000001
 44
0.00000001
 40
0.0
 40
0.0
 40
0.0
 40
0.0
 40
0.2529297945209721
 40
0.4120222995411709
 40
0.4120222995411709
 40
0.4120222995411709
 40
0.4120222995411709
 10
217.3102867565482
 20
212.6987626563496
 30
0.0
 10
217.2235433395162
 20
212.6765022383323
 30
0.0
 10
217.0822384396041
 20
212.640240031194
 30
0.0
 10
217.0155558788302
 20
212.5145212779894
 30
0.0
 10
216.9898080172
 20
212.4659779992138
 30
0.0
 11
217.3102867565482
 21
212.6987626563496
 31
0.0
 11
217.0781772951669
 21
212.5982704659867
 31
0.0
 11
216.9898080172
 21
212.4659779992138
 31
0.0
  0
SPLINE
  5
E0
330
73
100
AcDbEntity
  8
0
  6
Continuous
 62
     1
100
AcDbSpline
210
0.0
220
0.0
230
1.0
 70
     8
 71
     3
 72
    11
 73
     7
 74
     5
 42
0.000000001
 43
0.0000000001
 44
0.00000001
 40
0.0
 40
0.0
 40
0.0
 40
0.0
 40
0.3383765817019611
 40
0.6645262547126765
 40
0.7323610101706381
 40
0.8001069118785058
 40
0.8001069118785058
 40
0.8001069118785058
 40
0.8001069118785058
 10
206.9074113945516
 20
210.3906429700845
 30
0.0
 10
206.7976363197471
 20
210.4185001854566
 30
0.0
 10
206.5820527835226
 20
210.4732080057771
 30
0.0
 10
206.3343141375981
 20
210.4623110665839
 30
0.0
 10
206.1829227137781
 20
210.4346547295787
 30
0.0
 10
206.1390815780394
 20
210.4236108162585
 30
0.0
 10
206.1171753776382
 20
210.4180924714838
 30
0.0
 11
206.9074113945516
 21
210.3906429700845
 31
0.0
 11
206.5756985818875
 21
210.4574660233512
 31
0.0
 11
206.2497396580807
 21
210.4463129568877
 31
0.0
 11
206.1830469903902
 21
210.4339177051842
 31
0.0
 11
206.1171753776382
 21
210.4180924714838
 31
0.0
  0
SPLINE
  5
E1
330
73
100
AcDbEntity
  8
0
  6
Continuous
 62
     1
100
AcDbSpline
210
0.0
220
0.0
230
1.0
 70
     8
 71
     3
 72
    11
 73
     7
 74
     5
 42
0.000000001
 43
0.0000000001
 44
0.00000001
 40
0.0
 40
0.0
 40
0.0
 40
0.0
 40
0.2756338301559308
 40
0.5904064182929525
 40
0.9158707498512807
 40
1.221943069116018
 40
1.221943069116018
 40
1.221943069116018
 40
1.221943069116018
 10
211.8376826779803
 20
209.2968434228621
 30
0.0
 10
211.7474831133136
 20
209.2784287749282
 30
0.0
 10
211.5542760509607
 20
209.2389846976584
 30
0.0
 10
211.2477246943819
 20
209.2349251046019
 30
0.0
 10
210.9322832712456
 20
209.2580290339
 30
0.0
 10
210.7271596234976
 20
209.3067930340875
 30
0.0
 10
210.6277470722212
 20
209.3304263659162
 30
0.0
 11
211.8376826779803
 21
209.2968434228621
 31
0.0
 11
211.5661232377814
 21
209.2496260620331
 31
0.0
 11
211.2515156044853
 21
209.239436831854
 31
0.0
 11
210.9272511938575
 21
209.2673585788446
 31
0.0
 11
210.6277470722212
 21
209.3304263659162
 31
0.0
  0
SPLINE
  5
E2
330
73
100
AcDbEntity
  8
0
  6
Continuous
 62
     1
100
AcDbSpline
210
0.0
220
0.0
230
1.0
 70
     8
 71
     3
 72
     9
 73
     5
 74
     3
 42
0.000000001
 43
0.0000000001
 44
0.00000001
 40
0.0
 40
0.0
 40
0.0
 40
0.0
 40
0.237890899928011
 40
0.389820393317572
 40
0.389820393317572
 40
0.389820393317572
 40
0.389820393317572
 10
218.6087039857594
 20
211.5971121288546
 30
0.0
 10
218.6858352260662
 20
211.5634948371203
 30
0.0
 10
218.812226471883
 20
211.5084077817965
 30
0.0
 10
218.8561764796853
 20
211.381147197671
 30
0.0
 10
218.8733056497237
 20
211.3315483621531
 30
0.0
 11
218.6087039857594
 21
211.5971121288546
 31
0.0
 11
218.809395387648
 21
211.4693817768866
 31
0.0
 11
218.8733056497237
 21
211.3315483621531
 31
0.0
  0
SPLINE
  5
E3
330
73
100
AcDbEntity
  8
0
  6
Continuous
 62
     1
100
AcDbSpline
210
0.0
220
0.0
230
1.0
 70
     8
 71
     3
 72
     9
 73
     5
 74
     3
 42
0.000000001
 43
0.0000000001
 44
0.00000001
 40
0.0
 40
0.0
 40
0.0
 40
0.0
 40
0.1590925050202619
 40
0.412022299541234
 40
0.412022299541234
 40
0.412022299541234
 40
0.412022299541234
 10
218.8733056497237
 20
211.3315483621531
 30
0.0
 10
218.8475577880936
 20
211.2830050833776
 30
0.0
 10
218.7808752273195
 20
211.1572863301729
 30
0.0
 10
218.6395703274073
 20
211.1210241230346
 30
0.0
 10
218.5528269103754
 20
211.0987637050173
 30
0.0
 11
218.8733056497237
 21
211.3315483621531
 31
0.0
 11
218.7849363717567
 21
211.1992558953802
 31
0.0
 11
218.5528269103754
 21
211.0987637050173
 31
0.0
  0
SPLINE
  5
E4
330
73
100
AcDbEntity
  8
0
  6
Continuous
 62
     1
100
AcDbSpline
210
0.0
220
0.0
230
1.0
 70
     8
 71
     3
 72
    13
 73
     9
 74
     7
 42
0.000000001
 43
0.0000000001
 44
0.00000001
 40
0.0
 40
0.0
 40
0.0
 40
0.0
 40
0.1708194468048848
 40
0.3198355146557493
 40
0.444371333435397
 40
0.5442550768382235
 40
0.6081237668754165
 40
0.6640024628515018
 40
0.6640024628515018
 40
0.6640024628515018
 40
0.6640024628515018
 10
120.8361854226411
 20
185.9144169837923
 30
0.0
 10
120.8220049795639
 20
185.9696592071242
 30
0.0
 10
120.7954540852799
 20
186.0730925412832
 30
0.0
 10
120.7838931202073
 20
186.2214829226392
 30
0.0
 10
120.7951114670132
 20
186.3464343877966
 30
0.0
 10
120.8265114791836
 20
186.4380196652851
 30
0.0
 10
120.8714632850908
 20
186.4992030177391
 30
0.0
 10
120.9086730580194
 20
186.5152704594856
 30
0.0
 10
120.9260365603909
 20
186.5227681350795
 30
0.0
 11
120.8361854226411
 21
185.9144169837923
 31
0.0
 11
120.7988441252758
 21
186.0811050382823
 31
0.0
 11
120.7878067333957
 21
186.2297117826689
 31
0.0
 11
120.8013031263517
 21
186.3535141148879
 31
0.0
 11
120.836267892128
 21
186.4470781418946
 31
0.0
 11
120.8767117359838
 21
186.4965099705204
 31
0.0
 11
120.9260365603909
 21
186.5227681350795
 31
0.0
  0
SPLINE
  5
E5
330
73
100
AcDbEntity
  8
0
  6
Continuous
 62
     1
100
AcDbSpline
210
0.0
220
0.0
230
1.0
 70
     8
 71
     3
 72
    12
 73
     8
 74
     6
 42
0.000000001
 43
0.0000000001
 44
0.00000001
 40
0.0
 40
0.0
 40
0.0
 40
0.0
 40
0.0146028391484018
 40
0.0293720881588168
 40
0.0789139958995254
 40
0.1358266939430462
 40
0.2025503911781347
 40
0.2025503911781347
 40
0.2025503911781347
 40
0.2025503911781347
 10
120.9260365603909
 20
186.5227681350795
 30
0.0
 10
120.9307841074636
 20
186.5238695428568
 30
0.0
 10
120.9403333060876
 20
186.5260848961418
 30
0.0
 10
120.9666546669947
 20
186.5280753902218
 30
0.0
 10
121.0072366757798
 20
186.5208739025988
 30
0.0
 10
121.0593511531986
 20
186.4942629268868
 30
0.0
 10
121.0899701137502
 20
186.4664712896353
 30
0.0
 10
121.1064944530806
 20
186.4514727825385
 30
0.0
 11
120.9260365603909
 21
186.5227681350795
 31
0.0
 11
120.9403404342812
 21
186.5257078988369
 31
0.0
 11
120.9550605813899
 21
186.5269112591425
 31
0.0
 11
121.0039889718337
 21
186.5191386335067
 31
0.0
 11
121.0550029975121
 21
186.4939072150871
 31
0.0
 11
121.1064944530806
 21
186.4514727825385
 31
0.0
  0
SPLINE
  5
E6
330
73
100
AcDbEntity
  8
0
  6
Continuous
 62
     1
100
AcDbSpline
210
0.0
220
0.0
230
1.0
 70
     8
 71
     3
 72
    11
 73
     7
 74
     5
 42
0.000000001
 43
0.0000000001
 44
0.00000001
 40
0.0
 40
0.0
 40
0.0
 40
0.0
 40
0.0420481551596992
 40
0.0842977460167925
 40
0.2930060640670336
 40
0.5281071255794637
 40
0.5281071255794637
 40
0.5281071255794637
 40
0.5281071255794637
 10
120.6668605893623
 20
187.4886288583666
 30
0.0
 10
120.6804953193224
 20
187.4919239160541
 30
0.0
 10
120.7078301007795
 20
187.4985298028985
 30
0.0
 10
120.804710544614
 20
187.5113805083783
 30
0.0
 10
120.9712639753593
 20
187.4945561662765
 30
0.0
 10
121.1017633420944
 20
187.4225334179415
 30
0.0
 10
121.1708933332515
 20
187.3843804879282
 30
0.0
 11
120.6668605893623
 21
187.4886288583666
 31
0.0
 11
120.7078985632986
 21
187.4977903130158
 31
0.0
 11
120.7497575921736
 21
187.503521785668
 31
0.0
 11
120.9574485182839
 21
187.4829391966633
 31
0.0
 11
121.1708933332515
 21
187.3843804879282
 31
0.0
  0
SPLINE
  5
E7
330
73
100
AcDbEntity
  8
0
  6
Continuous
 62
     1
100
AcDbSpline
210
0.0
220
0.0
230
1.0
 70
     8
 71
     3
 72
    13
 73
     9
 74
     7
 42
0.000000001
 43
0.0000000001
 44
0.00000001
 40
0.0
 40
0.0
 40
0.0
 40
0.0
 40
0.3495750261612168
 40
0.6648561276089534
 40
0.9420484375973383
 40
1.182599308405164
 40
1.351992258268177
 40
1.511259065169618
 40
1.511259065169618
 40
1.511259065169618
 40
1.511259065169618
 10
120.1572032815867
 20
186.1833262685627
 30
0.0
 10
120.1480468127262
 20
186.2997182593927
 30
0.0
 10
120.1306321503199
 20
186.5210839823978
 30
0.0
 10
120.1670769053142
 20
186.8350147689486
 30
0.0
 10
120.2497668329315
 20
187.1024054851952
 30
0.0
 10
120.370928623295
 20
187.299618392305
 30
0.0
 10
120.5133502610906
 20
187.4310424604702
 30
0.0
 10
120.6167524325608
 20
187.469831767987
 30
0.0
 10
120.6668605893623
 20
187.4886288583666
 30
0.0
 11
120.1572032815867
 21
186.1833262685627
 31
0.0
 11
120.1416590024531
 21
186.5325555185437
 31
0.0
 11
120.1787139007921
 21
186.845651521784
 31
0.0
 11
120.2648406855524
 21
187.1091240139563
 31
0.0
 11
120.3939042159532
 21
187.3121198957037
 31
0.0
 11
120.5215071678555
 21
187.4235266286485
 31
0.0
 11
120.6668605893623
 21
187.4886288583666
 31
0.0
  0
SPLINE
  5
E8
330
73
100
AcDbEntity
  8
0
  6
Continuous
 62
     1
100
AcDbSpline
210
0.0
220
0.0
230
1.0
 70
     8
 71
     3
 72
     9
 73
     5
 74
     3
 42
0.000000001
 43
0.0000000001
 44
0.00000001
 40
0.0
 40
0.0
 40
0.0
 40
0.0
 40
0.1590925050202224
 40
0.4120222995412153
 40
0.4120222995412153
 40
0.4120222995412153
 40
0.4120222995412153
 10
123.3325723121465
 20
185.6944541739982
 30
0.0
 10
123.3068244505164
 20
185.6459108952226
 30
0.0
 10
123.2401418897425
 20
185.520192142018
 30
0.0
 10
123.0988369898303
 20
185.4839299348796
 30
0.0
 10
123.0120935727983
 20
185.4616695168623
 30
0.0
 11
123.3325723121465
 21
185.6944541739982
 31
0.0
 11
123.2442030341796
 21
185.5621617072253
 31
0.0
 11
123.0120935727983
 21
185.4616695168623
 31
0.0
  0
SPLINE
  5
E9
330
73
100
AcDbEntity
  8
0
  6
Continuous
 62
     1
100
AcDbSpline
210
0.0
220
0.0
230
1.0
 70
     8
 71
     3
 72
     9
 73
     5
 74
     3
 42
0.000000001
 43
0.0000000001
 44
0.00000001
 40
0.0
 40
0.0
 40
0.0
 40
0.0
 40
0.1259184024239645
 40
0.2206452216080259
 40
0.2206452216080259
 40
0.2206452216080259
 40
0.2206452216080259
 10
123.2182520326655
 20
185.8752426030889
 30
0.0
 10
123.2528448952609
 20
185.848338941846
 30
0.0
 10
123.3134615145618
 20
185.8011959859289
 30
0.0
 10
123.3268320970532
 20
185.7265157129833
 30
0.0
 10
123.3325723121465
 20
185.6944541739982
 30
0.0
 11
123.2182520326655
 21
185.8752426030889
 31
0.0
 11
123.3066435833467
 21
185.7855632940966
 31
0.0
 11
123.3325723121465
 21
185.6944541739982
 31
0.0
  0
SPLINE
  5
EA
330
73
100
AcDbEntity
  8
0
  6
Continuous
 62
     1
100
AcDbSpline
210
0.0
220
0.0
230
1.0
 70
     8
 71
     3
 72
     9
 73
     5
 74
     3
 42
0.000000001
 43
0.0000000001
 44
0.00000001
 40
0.0
 40
0.0
 40
0.0
 40
0.0
 40
0.237890899927987
 40
0.3898203933174864
 40
0.3898203933174864
 40
0.3898203933174864
 40
0.3898203933174864
 10
217.1900108009933
 20
211.2675065271226
 30
0.0
 10
217.1128795606864
 20
211.3011238188569
 30
0.0
 10
216.9864883148697
 20
211.3562108741808
 30
0.0
 10
216.9425383070675
 20
211.4834714583062
 30
0.0
 10
216.9254091370291
 20
211.5330702938241
 30
0.0
 11
217.1900108009933
 21
211.2675065271226
 31
0.0
 11
216.9893193991047
 21
211.3952368790906
 31
0.0
 11
216.9254091370291
 21
211.5330702938241
 31
0.0
  0
SPLINE
  5
EB
330
73
100
AcDbEntity
  8
0
  6
Continuous
 62
     1
100
AcDbSpline
210
0.0
220
0.0
230
1.0
 70
     8
 71
     3
 72
     9
 73
     5
 74
     3
 42
0.000000001
 43
0.0000000001
 44
0.00000001
 40
0.0
 40
0.0
 40
0.0
 40
0.0
 40
0.1519294933894856
 40
0.389820393317575
 40
0.389820393317575
 40
0.389820393317575
 40
0.389820393317575
 10
216.9898080172
 20
212.4659779992138
 30
0.0
 10
217.0069371872385
 20
212.416379163696
 30
0.0
 10
217.0508871950407
 20
212.2891185795705
 30
0.0
 10
217.1772784408573
 20
212.2340315242466
 30
0.0
 10
217.2544096811643
 20
212.2004142325123
 30
0.0
 11
216.9898080172
 21
212.4659779992138
 31
0.0
 11
217.0537182792756
 21
212.3281445844803
 31
0.0
 11
217.2544096811643
 21
212.2004142325123
 31
0.0
  0
SPLINE
  5
EC
330
73
100
AcDbEntity
  8
0
  6
Continuous
 62
     1
100
AcDbSpline
210
0.0
220
0.0
230
1.0
 70
     8
 71
     3
 72
    11
 73
     7
 74
     5
 42
0.000000001
 43
0.0000000001
 44
0.00000001
 40
0.0
 40
0.0
 40
0.0
 40
0.0
 40
0.5038749979303281
 40
1.124635381623334
 40
1.622515031357403
 40
2.041732098916622
 40
2.041732098916622
 40
2.041732098916622
 40
2.041732098916622
 10
131.1516789469245
 20
174.8274080287831
 30
0.0
 10
131.3195444523596
 20
174.8145883946514
 30
0.0
 10
131.6942157230837
 20
174.7859753015521
 30
0.0
 10
132.214827971469
 20
174.6231785915402
 30
0.0
 10
132.6802446653969
 20
174.4055968207858
 30
0.0
 10
132.9377727037194
 20
174.2403423378346
 30
0.0
 10
133.0554921804056
 20
174.1648023167078
 30
0.0
 11
131.1516789469245
 21
174.8274080287831
 31
0.0
 11
131.6525028390469
 21
174.7720415813473
 31
0.0
 11
132.2479774201448
 21
174.596674880843
 31
0.0
 11
132.6981501241239
 21
174.3840045174244
 31
0.0
 11
133.0554921804056
 21
174.1648023167078
 31
0.0
  0
SPLINE
  5
ED
330
73
100
AcDbEntity
  8
0
  6
Continuous
 62
     1
100
AcDbSpline
210
0.0
220
0.0
230
1.0
 70
     8
 71
     3
 72
    15
 73
    11
 74
     9
 42
0.000000001
 43
0.0000000001
 44
0.00000001
 40
0.0
 40
0.0
 40
0.0
 40
0.0
 40
0.2346359372088218
 40
0.4926006240429552
 40
0.9386326974836363
 40
1.479125311894123
 40
1.914084053979561
 40
2.472961281287227
 40
2.770195977016795
 40
2.990457864137301
 40
2.990457864137301
 40
2.990457864137301
 40
2.990457864137301
 10
133.7955713934737
 20
173.9872058849622
 30
0.0
 10
133.7178980761793
 20
173.9963802498029
 30
0.0
 10
133.5548287491485
 20
174.0156411499785
 30
0.0
 10
133.244829541672
 20
174.0581202274565
 30
0.0
 10
132.8352429772395
 20
174.1243141141888
 30
0.0
 10
132.3708639352096
 20
174.2196049650225
 30
0.0
 10
131.8757040250388
 20
174.3484874925619
 30
0.0
 10
131.4674432273073
 20
174.4864919376613
 30
0.0
 10
131.1380942806043
 20
174.6303135427781
 30
0.0
 10
130.9878752081985
 20
174.715276679621
 30
0.0
 10
130.9239375212941
 20
174.7514395162186
 30
0.0
 11
133.7955713934737
 21
173.9872058849622
 31
0.0
 11
133.5626375986341
 21
174.0154169772893
 31
0.0
 11
133.3070503469979
 21
174.0503588873829
 31
0.0
 11
132.8668226931217
 21
174.122082137663
 31
0.0
 11
132.3375750292077
 21
174.2317597411591
 31
0.0
 11
131.9169328789224
 21
174.3424362436089
 31
0.0
 11
131.3884424397343
 21
174.524209746735
 31
0.0
 11
131.1172224388306
 21
174.6458164110782
 31
0.0
 11
130.9239375212941
 21
174.7514395162186
 31
0.0
  0
SPLINE
  5
EE
330
73
100
AcDbEntity
  8
0
  6
Continuous
 62
     1
100
AcDbSpline
210
0.0
220
0.0
230
1.0
 70
     8
 71
     3
 72
    11
 73
     7
 74
     5
 42
0.000000001
 43
0.0000000001
 44
0.00000001
 40
0.0
 40
0.0
 40
0.0
 40
0.0
 40
0.1489151544495613
 40
0.3442734500870236
 40
0.5102421110620625
 40
0.7248947016502515
 40
0.7248947016502515
 40
0.7248947016502515
 40
0.7248947016502515
 10
132.8514969579697
 20
174.2440033103777
 30
0.0
 10
132.897277001259
 20
174.2247689149996
 30
0.0
 10
133.0031148148671
 20
174.1803013830294
 30
0.0
 10
133.1653480847459
 20
174.12855034751
 30
0.0
 10
133.3506543856116
 20
174.078156187174
 30
0.0
 10
133.47482297895
 20
174.0519376303197
 30
0.0
 10
133.5448482620715
 20
174.0371515977765
 30
0.0
 11
132.8514969579697
 21
174.2440033103777
 31
0.0
 11
132.9895153484148
 21
174.188086879188
 31
0.0
 11
133.1750908486465
 21
174.1270410130796
 31
0.0
 11
133.3353174439122
 21
174.0837624416326
 31
0.0
 11
133.5448482620715
 21
174.0371515977765
 31
0.0
  0
SPLINE
  5
EF
330
73
100
AcDbEntity
  8
0
  6
Continuous
 62
     1
100
AcDbSpline
210
0.0
220
0.0
230
1.0
 70
     8
 71
     3
 72
    15
 73
    11
 74
     9
 42
0.000000001
 43
0.0000000001
 44
0.00000001
 40
0.0
 40
0.0
 40
0.0
 40
0.0
 40
0.4117011528093849
 40
0.8273611204215572
 40
1.245224895384672
 40
1.662174222954199
 40
2.073886041380224
 40
2.475134794775788
 40
2.85990581671505
 40
3.221969636292837
 40
3.221969636292837
 40
3.221969636292837
 40
3.221969636292837
 10
131.2160778270954
 20
175.7603157341728
 30
0.0
 10
131.3511064742356
 20
175.7347118179886
 30
0.0
 10
131.6224621669259
 20
175.6832577705252
 30
0.0
 10
132.0134832243855
 20
175.5389101531983
 30
0.0
 10
132.3866464638751
 20
175.3517120148115
 30
0.0
 10
132.7353705438794
 20
175.1241889087439
 30
0.0
 10
133.0544477850089
 20
174.865655757012
 30
0.0
 10
133.338998554225
 20
174.5849436372389
 30
0.0
 10
133.5880655192325
 20
174.2933707898837
 30
0.0
 10
133.7278191563828
 20
174.0871710503075
 30
0.0
 10
133.7955713934737
 20
173.9872058849622
 30
0.0
 11
131.2160778270954
 21
175.7603157341728
 31
0.0
 11
131.6183036569952
 21
175.6724964766899
 31
0.0
 11
132.0095578787142
 21
175.5321635008684
 31
0.0
 11
132.3830162822969
 21
175.3447096225041
 31
0.0
 11
132.7325716238742
 21
175.1174260859351
 31
0.0
 11
133.0526050105258
 21
174.8584178743991
 31
0.0
 11
133.3386869433971
 21
174.5770681093951
 31
0.0
 11
133.587081568015
 21
174.2832163610071
 31
0.0
 11
133.7955713934737
 21
173.9872058849622
 31
0.0
  0
SPLINE
  5
F0
330
73
100
AcDbEntity
  8
0
  6
Continuous
 62
     1
100
AcDbSpline
210
0.0
220
0.0
230
1.0
 70
     8
 71
     3
 72
    13
 73
     9
 74
     7
 42
0.000000001
 43
0.0000000001
 44
0.00000001
 40
0.0
 40
0.0
 40
0.0
 40
0.0
 40
0.0418063661135014
 40
0.0845298899375951
 40
0.299482693519045
 40
0.5236839040752004
 40
0.7501830025808589
 40
0.9735307331204645
 40
0.9735307331204645
 40
0.9735307331204645
 40
0.9735307331204645
 10
132.8514969579697
 20
174.2440033103777
 30
0.0
 10
132.8387763345546
 20
174.2496939265193
 30
0.0
 10
132.8130560256655
 20
174.2612000140676
 30
0.0
 10
132.7219622199471
 20
174.3020331795675
 30
0.0
 10
132.5756710980557
 20
174.3683964027195
 30
0.0
 10
132.3759494161689
 20
174.465067302914
 30
0.0
 10
132.1768877431925
 20
174.5696054822134
 30
0.0
 10
132.0496066559992
 20
174.648967093948
 30
0.0
 10
131.9864119452545
 20
174.6883699252751
 30
0.0
 11
132.8514969579697
 21
174.2440033103777
 31
0.0
 11
132.8133372446975
 21
174.2610798579487
 31
0.0
 11
132.7743534282613
 21
174.2785601768093
 31
0.0
 11
132.5788519690034
 21
174.3679127778836
 31
0.0
 11
132.3771648384549
 21
174.4658335846635
 31
0.0
 11
132.1773688633864
 21
174.5725266503031
 31
0.0
 11
131.9864119452545
 21
174.6883699252751
 31
0.0
  0
SPLINE
  5
F1
330
73
100
AcDbEntity
  8
0
  6
Continuous
 62
     1
100
AcDbSpline
210
0.0
220
0.0
230
1.0
 70
     8
 71
     3
 72
    11
 73
     7
 74
     5
 42
0.000000001
 43
0.0000000001
 44
0.00000001
 40
0.0
 40
0.0
 40
0.0
 40
0.0
 40
1.914969457336037
 40
3.85517193397175
 40
5.656260339845665
 40
7.208885787512777
 40
7.208885787512777
 40
7.208885787512777
 40
7.208885787512777
 10
108.2668196192088
 20
104.7848109932382
 30
0.0
 10
108.292592720066
 20
104.1425665820746
 30
0.0
 10
108.3444785414173
 20
102.8496150857135
 30
0.0
 10
109.034170623578
 20
101.0732625800736
 30
0.0
 10
110.0271401172919
 20
99.55745100536775
 30
0.0
 10
111.0052634557462
 20
98.98906739393402
 30
0.0
 10
111.4580925479591
 20
98.72593020383368
 30
0.0
 11
108.2668196192088
 21
104.7848109932382
 31
0.0
 11
108.4473227793175
 21
102.8783675430182
 31
0.0
 11
109.1171722905758
 21
101.0574646646491
 31
0.0
 11
110.1744219916069
 21
99.59933485845431
 31
0.0
 11
111.4580925479591
 21
98.72593020383368
 31
0.0
  0
SPLINE
  5
F2
330
73
100
AcDbEntity
  8
0
  6
Continuous
 62
     1
100
AcDbSpline
210
0.0
220
0.0
230
1.0
 70
     8
 71
     3
 72
    11
 73
     7
 74
     5
 42
0.000000001
 43
0.0000000001
 44
0.00000001
 40
0.0
 40
0.0
 40
0.0
 40
0.0
 40
0.6348115119228002
 40
1.392557661573698
 40
2.165231353521217
 40
2.842089508243235
 40
2.842089508243235
 40
2.842089508243235
 40
2.842089508243235
 10
135.4865509603034
 20
92.9488270582579
 30
0.0
 10
135.696384170548
 20
92.9193976131427
 30
0.0
 10
136.1566859139643
 20
92.85483956957057
 30
0.0
 10
136.8802502427708
 20
92.86562059888803
 30
0.0
 10
137.6154044055174
 20
92.92064630857743
 30
0.0
 10
138.0880042081797
 20
93.02387709089638
 30
0.0
 10
138.3086844430628
 20
93.07208065912928
 30
0.0
 11
135.4865509603034
 21
92.9488270582579
 31
0.0
 11
136.1171010672859
 21
92.87539532958591
 31
0.0
 11
136.8748435300687
 21
92.87303107690157
 31
0.0
 11
137.6444240584154
 21
92.94209949489218
 31
0.0
 11
138.3086844430628
 21
93.07208065912928
 31
0.0
  0
SPLINE
  5
F3
330
73
100
AcDbEntity
  8
0
  6
Continuous
 62
     1
100
AcDbSpline
210
0.0
220
0.0
230
1.0
 70
     8
 71
     3
 72
     9
 73
     5
 74
     3
 42
0.000000001
 43
0.0000000001
 44
0.00000001
 40
0.0
 40
0.0
 40
0.0
 40
0.0
 40
0.0999622122660946
 40
0.2048958048853689
 40
0.2048958048853689
 40
0.2048958048853689
 40
0.2048958048853689
 10
148.4170598077173
 20
149.3314011335586
 30
0.0
 10
148.4465831419184
 20
149.3470344549595
 30
0.0
 10
148.5070980719647
 20
149.3790786004242
 30
0.0
 10
148.5602279019697
 20
149.4222938241018
 30
0.0
 10
148.5874373547616
 20
149.4444257090721
 30
0.0
 11
148.4170598077173
 21
149.3314011335586
 31
0.0
 11
148.5038720359954
 21
149.3809599978837
 31
0.0
 11
148.5874373547616
 21
149.4444257090721
 31
0.0
  0
SPLINE
  5
F4
330
73
100
AcDbEntity
  8
0
  6
Continuous
 62
     1
100
AcDbSpline
210
0.0
220
0.0
230
1.0
 70
     8
 71
     3
 72
     9
 73
     5
 74
     3
 42
0.000000001
 43
0.0000000001
 44
0.00000001
 40
0.0
 40
0.0
 40
0.0
 40
0.0
 40
11.38761643372114
 40
23.19264473106379
 40
23.19264473106379
 40
23.19264473106379
 40
23.19264473106379
 10
166.448788368946
 20
165.565153443604
 30
0.0
 10
163.3176398933363
 20
163.4069627322735
 30
0.0
 10
156.940571041489
 20
159.0114730438875
 30
0.0
 10
151.370320536328
 20
153.6291507275864
 30
0.0
 10
148.5350697296458
 20
150.8895551288753
 30
0.0
 11
166.448788368946
 21
165.565153443604
 31
0.0
 11
157.2498524736992
 21
158.852673540527
 31
0.0
 11
148.5350697296458
 21
150.8895551288753
 31
0.0
  0
SPLINE
  5
F5
330
73
100
AcDbEntity
  8
0
  6
Continuous
 62
     1
100
AcDbSpline
210
0.0
220
0.0
230
1.0
 70
     8
 71
     3
 72
     9
 73
     5
 74
     3
 42
0.000000001
 43
0.0000000001
 44
0.00000001
 40
0.0
 40
0.0
 40
0.0
 40
0.0
 40
0.4237986088443135
 40
0.9013804297228601
 40
0.9013804297228601
 40
0.9013804297228601
 40
0.9013804297228601
 10
165.4655949462605
 20
160.9222529322862
 30
0.0
 10
165.5817811456127
 20
161.0085244359522
 30
0.0
 10
165.828898427506
 20
161.1920159552949
 30
0.0
 10
165.9259755255628
 20
161.4852726781048
 30
0.0
 10
165.9774102448259
 20
161.6406500080057
 30
0.0
 11
165.4655949462605
 21
160.9222529322862
 31
0.0
 11
165.7809862182158
 21
161.2053317343554
 31
0.0
 11
165.9774102448259
 21
161.6406500080057
 31
0.0
  0
SPLINE
  5
F6
330
73
100
AcDbEntity
  8
0
  6
Continuous
 62
     1
100
AcDbSpline
210
0.0
220
0.0
230
1.0
 70
     8
 71
     3
 72
     9
 73
     5
 74
     3
 42
0.000000001
 43
0.0000000001
 44
0.00000001
 40
0.0
 40
0.0
 40
0.0
 40
0.0
 40
10.41392276622686
 40
20.44687714135399
 40
20.44687714135399
 40
20.44687714135399
 40
20.44687714135399
 10
148.5874373547616
 20
149.4444257090721
 30
0.0
 10
151.2810467165206
 20
151.6463159338594
 30
0.0
 10
156.5697262126623
 20
155.9695454936652
 30
0.0
 10
162.5373686143575
 20
159.2919851412984
 30
0.0
 10
165.4655949462605
 20
160.9222529322862
 30
0.0
 11
148.5874373547616
 21
149.4444257090721
 31
0.0
 11
156.8443903536613
 21
155.7904886277027
 31
0.0
 11
165.4655949462605
 21
160.9222529322862
 31
0.0
  0
SPLINE
  5
F7
330
73
100
AcDbEntity
  8
0
  6
Continuous
 62
     1
100
AcDbSpline
210
0.0
220
0.0
230
1.0
 70
     8
 71
     3
 72
     9
 73
     5
 74
     3
 42
0.000000001
 43
0.0000000001
 44
0.00000001
 40
0.0
 40
0.0
 40
0.0
 40
0.0
 40
10.41392276622694
 40
20.44687714135405
 40
20.44687714135405
 40
20.44687714135405
 40
20.44687714135405
 10
149.2654798684598
 20
149.3093551374991
 30
0.0
 10
151.9590892302188
 20
151.5112453622864
 30
0.0
 10
157.2477687263606
 20
155.8344749220923
 30
0.0
 10
163.2154111280557
 20
159.1569145697254
 30
0.0
 10
166.1436374599587
 20
160.7871823607133
 30
0.0
 11
149.2654798684598
 21
149.3093551374991
 31
0.0
 11
157.5224328673595
 21
155.6554180561298
 31
0.0
 11
166.1436374599587
 21
160.7871823607133
 31
0.0
  0
SPLINE
  5
F8
330
73
100
AcDbEntity
  8
0
  6
Continuous
 62
     1
100
AcDbSpline
210
0.0
220
0.0
230
1.0
 70
     8
 71
     3
 72
     9
 73
     5
 74
     3
 42
0.000000001
 43
0.0000000001
 44
0.00000001
 40
0.0
 40
0.0
 40
0.0
 40
0.0
 40
0.2723612057018931
 40
0.5731784249382944
 40
0.5731784249382944
 40
0.5731784249382944
 40
0.5731784249382944
 10
148.7322478334242
 20
149.144319647407
 30
0.0
 10
148.8256693543762
 20
149.1402694800113
 30
0.0
 10
149.0222729758726
 20
149.1317460069031
 30
0.0
 10
149.1817714204678
 20
149.2482245238157
 30
0.0
 10
149.2654798684598
 20
149.3093551374991
 30
0.0
 11
148.7322478334242
 21
149.144319647407
 31
0.0
 11
149.0041343001853
 21
149.1603937508881
 31
0.0
 11
149.2654798684598
 21
149.3093551374991
 31
0.0
  0
SPLINE
  5
F9
330
73
100
AcDbEntity
  8
0
  6
Continuous
 62
     1
100
AcDbSpline
210
0.0
220
0.0
230
1.0
 70
     8
 71
     3
 72
    11
 73
     7
 74
     5
 42
0.000000001
 43
0.0000000001
 44
0.00000001
 40
0.0
 40
0.0
 40
0.0
 40
0.0
 40
0.5429848282122395
 40
1.110079753075472
 40
1.619058051483016
 40
2.045371097554639
 40
2.045371097554639
 40
2.045371097554639
 40
2.045371097554639
 10
148.5350697296458
 20
150.8895551288753
 30
0.0
 10
148.4282809366704
 20
150.7392845561625
 30
0.0
 10
148.2099616320637
 20
150.4320709558527
 30
0.0
 10
148.1649824043409
 20
149.8798533199517
 30
0.0
 10
148.3101096394003
 20
149.3554272327167
 30
0.0
 10
148.6000780018967
 20
149.2104166087547
 30
0.0
 10
148.7322478334242
 20
149.144319647407
 30
0.0
 11
148.5350697296458
 21
150.8895551288753
 31
0.0
 11
148.2595595166117
 21
150.4216591523833
 31
0.0
 11
148.200539899477
 21
149.8576437782646
 31
0.0
 11
148.3772117920126
 21
149.3803116519745
 31
0.0
 11
148.7322478334242
 21
149.144319647407
 31
0.0
  0
SPLINE
  5
FA
330
73
100
AcDbEntity
  8
0
  6
Continuous
 62
     1
100
AcDbSpline
210
0.0
220
0.0
230
1.0
 70
     8
 71
     3
 72
    11
 73
     7
 74
     5
 42
0.000000001
 43
0.0000000001
 44
0.00000001
 40
0.0
 40
0.0
 40
0.0
 40
0.0
 40
0.4036729211465665
 40
0.7818910676716924
 40
0.9189886493900208
 40
1.047841533275261
 40
1.047841533275261
 40
1.047841533275261
 40
1.047841533275261
 10
166.7115230194793
 20
164.6130092668758
 30
0.0
 10
166.7331717385336
 20
164.7467852464819
 30
0.0
 10
166.7751040384294
 20
165.0059015710322
 30
0.0
 10
166.7054799227445
 20
165.3128958725918
 30
0.0
 10
166.609593196467
 20
165.5061332341009
 30
0.0
 10
166.5540947177661
 20
165.5755797054314
 30
0.0
 10
166.5272057235269
 20
165.6092264861457
 30
0.0
 11
166.7115230194793
 21
164.6130092668758
 31
0.0
 11
166.7495031365026
 21
165.014891508728
 31
0.0
 11
166.6669223354903
 21
165.3839841533148
 31
0.0
 11
166.6041377983406
 21
165.5058605235225
 31
0.0
 11
166.5272057235269
 21
165.6092264861457
 31
0.0
  0
SPLINE
  5
FB
330
73
100
AcDbEntity
  8
0
  6
Continuous
 62
     1
100
AcDbSpline
210
0.0
220
0.0
230
1.0
 70
     8
 71
     3
 72
     9
 73
     5
 74
     3
 42
0.000000001
 43
0.0000000001
 44
0.00000001
 40
0.0
 40
0.0
 40
0.0
 40
0.0
 40
0.4775818208786127
 40
0.9013804297228692
 40
0.9013804297228692
 40
0.9013804297228692
 40
0.9013804297228692
 10
166.6554527585241
 20
161.5055794364328
 30
0.0
 10
166.604018039261
 20
161.3502021065319
 30
0.0
 10
166.5069409412044
 20
161.0569453837219
 30
0.0
 10
166.2598236593109
 20
160.8734538643792
 30
0.0
 10
166.1436374599587
 20
160.7871823607133
 30
0.0
 11
166.6554527585241
 21
161.5055794364328
 31
0.0
 11
166.459028731914
 21
161.0702611627824
 31
0.0
 11
166.1436374599587
 21
160.7871823607133
 31
0.0
  0
SPLINE
  5
FC
330
73
100
AcDbEntity
  8
0
  6
Continuous
 62
     1
100
AcDbSpline
210
0.0
220
0.0
230
1.0
 70
     8
 71
     3
 72
    11
 73
     7
 74
     5
 42
0.000000001
 43
0.0000000001
 44
0.00000001
 40
0.0
 40
0.0
 40
0.0
 40
0.0
 40
0.2985154979943165
 40
0.63299754113936
 40
1.011215687911038
 40
1.414888608655828
 40
1.414888608655828
 40
1.414888608655828
 40
1.414888608655828
 10
166.8900413980008
 20
165.6612277911913
 30
0.0
 10
166.9848703545721
 20
165.6239139289799
 30
0.0
 10
167.1859536976156
 20
165.5447904431057
 30
0.0
 10
167.369776584337
 20
165.2402848361648
 30
0.0
 10
167.4528042564224
 20
164.8718162694478
 30
0.0
 10
167.4110977035069
 20
164.6120501494233
 30
0.0
 10
167.3895655331776
 20
164.4779386953028
 30
0.0
 11
166.8900413980008
 21
165.6612277911913
 31
0.0
 11
167.1553988706137
 21
165.5244911224157
 31
0.0
 11
167.3449648491886
 21
165.2489135817419
 31
0.0
 11
167.4275456502008
 21
164.879820937155
 31
0.0
 11
167.3895655331776
 21
164.4779386953028
 31
0.0
  0
SPLINE
  5
FD
330
73
100
AcDbEntity
  8
0
  6
Continuous
 62
     1
100
AcDbSpline
210
0.0
220
0.0
230
1.0
 70
     8
 71
     3
 72
     9
 73
     5
 74
     3
 42
0.000000001
 43
0.0000000001
 44
0.00000001
 40
0.0
 40
0.0
 40
0.0
 40
0.0
 40
0.2383732807660409
 40
0.4602412984277187
 40
0.4602412984277187
 40
0.4602412984277187
 40
0.4602412984277187
 10
166.448788368946
 20
165.565153443604
 30
0.0
 10
166.5202872299839
 20
165.6039920066981
 30
0.0
 10
166.6583342874826
 20
165.6789798838658
 30
0.0
 10
166.8146745960585
 20
165.6670019769386
 30
0.0
 10
166.8900413980008
 20
165.6612277911913
 30
0.0
 11
166.448788368946
 21
165.565153443604
 31
0.0
 11
166.6681921684534
 21
165.658340323933
 31
0.0
 11
166.8900413980008
 21
165.6612277911913
 31
0.0
  0
ENDBLK
  5
75
330
73
100
AcDbEntity
  8
0
100
AcDbBlockEnd
  0
BLOCK
  5
78
330
76
100
AcDbEntity
  8
0
100
AcDbBlockBegin
  2
AllgA
 70
     0
 10
194.001136
 20
155.99272
 30
0.0
  3
AllgA
  1
AllgA
  0
INSERT
  5
77
330
76
100
AcDbEntity
  8
0
100
AcDbBlockReference
  2
70710-2-0511__1
 10
108.212813680177
 20
92.84991746623189
 30
0.0
  0
MTEXT
  5
FF
330
76
100
AcDbEntity
  8
1
 62
     1
100
AcDbMText
 10
179.3941019987337
 20
220.3862426902106
 30
0.0
 40
7.0
 41
0.0
 71
     8
 72
     1
  1
 \P1:2
  7
CONVERTER_11
 73
     1
 44
1.02040816326531
  0
ENDBLK
  5
79
330
76
100
AcDbEntity
  8
0
100
AcDbBlockEnd
  0
BLOCK
  5
7B
330
7A
100
AcDbEntity
  8
0
100
AcDbBlockBegin
  2
Tabelle
 70
     0
 10
294.0
 20
101.1999958283321
 30
0.0
  3
Tabelle
  1
Tabelle
  0
LINE
  5
100
330
7A
100
AcDbEntity
  8
1
  6
Continuous
 62
     3
100
AcDbLine
 10
272.0
 20
93.19999582833202
 30
0.0
 11
252.0
 21
93.19999582833202
 31
0.0
  0
LINE
  5
101
330
7A
100
AcDbEntity
  8
1
  6
Continuous
 62
     3
100
AcDbLine
 10
272.0
 20
117.1999958283321
 30
0.0
 11
292.0
 21
117.1999958283321
 31
0.0
  0
LINE
  5
102
330
7A
100
AcDbEntity
  8
1
  6
Continuous
 62
     3
100
AcDbLine
 10
280.0
 20
117.1999958283321
 30
0.0
 11
280.0
 21
96.19999582833202
 31
0.0
  0
LINE
  5
103
330
7A
100
AcDbEntity
  8
1
  6
Continuous
 62
     3
100
AcDbLine
 10
308.0
 20
103.1999958283321
 30
0.0
 11
308.0
 21
96.19999582833202
 31
0.0
  0
LINE
  5
104
330
7A
100
AcDbEntity
  8
1
  6
Continuous
 62
     3
100
AcDbLine
 10
252.0
 20
103.1999958283321
 30
0.0
 11
252.0
 21
110.1999958283321
 31
0.0
  0
LINE
  5
105
330
7A
100
AcDbEntity
  8
1
  6
Continuous
 62
     3
100
AcDbLine
 10
252.0
 20
101.1999958283321
 30
0.0
 11
292.0
 21
101.1999958283321
 31
0.0
  0
LINE
  5
106
330
7A
100
AcDbEntity
  8
1
  6
Continuous
 62
     3
100
AcDbLine
 10
252.0
 20
110.1999958283321
 30
0.0
 11
252.0
 21
117.1999958283321
 31
0.0
  0
LINE
  5
107
330
7A
100
AcDbEntity
  8
1
  6
Continuous
 62
     3
100
AcDbLine
 10
308.0
 20
110.1999958283321
 30
0.0
 11
308.0
 21
103.1999958283321
 31
0.0
  0
LINE
  5
108
330
7A
100
AcDbEntity
  8
1
  6
Continuous
 62
     3
100
AcDbLine
 10
252.0
 20
109.1999958283321
 30
0.0
 11
292.0
 21
109.1999958283321
 31
0.0
  0
LINE
  5
109
330
7A
100
AcDbEntity
  8
1
  6
Continuous
 62
     3
100
AcDbLine
 10
252.0
 20
96.19999582833202
 30
0.0
 11
252.0
 21
103.1999958283321
 31
0.0
  0
LINE
  5
10A
330
7A
100
AcDbEntity
  8
1
  6
Continuous
 62
     3
100
AcDbLine
 10
292.0
 20
93.19999582833202
 30
0.0
 11
272.0
 21
93.19999582833202
 31
0.0
  0
LINE
  5
10B
330
7A
100
AcDbEntity
  8
1
  6
Continuous
 62
     3
100
AcDbLine
 10
308.0
 20
117.1999958283321
 30
0.0
 11
308.0
 21
110.1999958283321
 31
0.0
  0
LINE
  5
10C
330
7A
100
AcDbEntity
  8
1
  6
Continuous
 62
     3
100
AcDbLine
 10
252.0
 20
117.1999958283321
 30
0.0
 11
272.0
 21
117.1999958283321
 31
0.0
  0
LINE
  5
10D
330
7A
100
AcDbEntity
  8
1
  6
Continuous
 62
     3
100
AcDbLine
 10
292.0
 20
117.1999958283321
 30
0.0
 11
336.0
 21
117.1999958283321
 31
0.0
  0
LINE
  5
10E
330
7A
100
AcDbEntity
  8
1
  6
Continuous
 62
     3
100
AcDbLine
 10
292.0
 20
109.1999958283321
 30
0.0
 11
336.0
 21
109.1999958283321
 31
0.0
  0
LINE
  5
10F
330
7A
100
AcDbEntity
  8
1
  6
Continuous
 62
     3
100
AcDbLine
 10
292.0
 20
101.1999958283321
 30
0.0
 11
336.0
 21
101.1999958283321
 31
0.0
  0
LINE
  5
110
330
7A
100
AcDbEntity
  8
1
  6
Continuous
 62
     3
100
AcDbLine
 10
336.0
 20
117.1999958283321
 30
0.0
 11
336.0
 21
109.1999958283321
 31
0.0
  0
LINE
  5
111
330
7A
100
AcDbEntity
  8
1
  6
Continuous
 62
     3
100
AcDbLine
 10
336.0
 20
93.20000620257743
 30
0.0
 11
292.0
 21
93.19999427997742
 31
0.0
  0
LINE
  5
112
330
7A
100
AcDbEntity
  8
1
  6
Continuous
 62
     3
100
AcDbLine
 10
252.0
 20
96.19999582833202
 30
0.0
 11
252.0
 21
85.19999582833202
 31
0.0
  0
LINE
  5
113
330
7A
100
AcDbEntity
  8
1
  6
Continuous
 62
     3
100
AcDbLine
 10
280.0
 20
96.19999582833202
 30
0.0
 11
280.0000000000001
 21
85.19999582833202
 31
0.0
  0
LINE
  5
114
330
7A
100
AcDbEntity
  8
1
  6
Continuous
 62
     3
100
AcDbLine
 10
308.0
 20
96.19999582833202
 30
0.0
 11
308.0
 21
85.19999582833202
 31
0.0
  0
LINE
  5
115
330
7A
100
AcDbEntity
  8
1
  6
Continuous
 62
     3
100
AcDbLine
 10
336.0
 20
109.1999958283321
 30
0.0
 11
336.0
 21
85.19999582833202
 31
0.0
  0
LINE
  5
116
330
7A
100
AcDbEntity
  8
1
  6
Continuous
 62
     3
100
AcDbLine
 10
252.0
 20
85.19999582833202
 30
0.0
 11
336.0
 21
85.19999582833202
 31
0.0
  0
LINE
  5
117
330
7A
100
AcDbEntity
  8
1
  6
Continuous
 62
     3
100
AcDbLine
 10
287.082354289431
 20
89.22591281859962
 30
0.0
 11
301.082354289431
 21
89.22591281859962
 31
0.0
  0
LINE
  5
118
330
7A
100
AcDbEntity
  8
1
  6
Continuous
 62
     3
100
AcDbLine
 10
252.0
 20
109.6999958283321
 30
0.0
 11
336.0
 21
109.6999958283321
 31
0.0
  0
MTEXT
  5
119
330
7A
100
AcDbEntity
  8
1
 62
     4
100
AcDbMText
 10
259.633391562136
 20
110.9780970573592
 30
0.0
 40
2.0
 41
0.0
 71
     7
 72
     1
  1
Farbe / \Pcolour
  7
CONVERTER_11
 73
     1
 44
1.02040816326531
  0
MTEXT
  5
11A
330
7A
100
AcDbEntity
  8
1
 62
     4
100
AcDbMText
 10
287.30755291379
 20
110.5855235431575
 30
0.0
 40
2.0
 41
0.0
 71
     7
 72
     1
  1
Mat. Nr / \Pmat.no
  7
CONVERTER_11
 73
     1
 44
1.02040816326531
  0
MTEXT
  5
11B
330
7A
100
AcDbEntity
  8
1
 62
     4
100
AcDbMText
 10
257.367199318351
 20
102.0506024500023
 30
0.0
 40
2.0
 41
0.0
 71
     7
 72
     1
  1
schwarz / \Pblack
  7
CONVERTER_11
 73
     1
 44
1.02040816326531
  0
TEXT
  5
11C
330
7A
100
AcDbEntity
  8
1
 62
     4
100
AcDbText
 10
262.05666167814
 20
96.21877436536121
 30
0.0
 40
2.0
  1
EV1
 41
0.9
  7
CONVERTER_11
100
AcDbText
  0
MTEXT
  5
11D
330
7A
100
AcDbEntity
  8
1
 62
     4
100
AcDbMText
 10
309.7741758554641
 20
110.5544031110241
 30
0.0
 40
2.0
 41
0.0
 71
     7
 72
     1
  1
Mat.Nr. KIT (re/li)\Pmat.no. KIT (r/l)
  7
CONVERTER_11
 73
     1
 44
1.02040816326531
  0
MTEXT
  5
11E
330
7A
100
AcDbEntity
  8
1
 62
     4
100
AcDbMText
 10
252.850683765531
 20
86.25679281301032
 30
0.0
 40
2.0
 41
0.0
 71
     7
 72
     1
  1
nach RAL / \Paccording to RAL
  7
CONVERTER_11
 73
     1
 44
1.02040816326531
  0
TEXT
  5
11F
330
7A
100
AcDbEntity
  8
1
 62
     4
100
AcDbText
 10
285.092547222817
 20
103.3232825689613
 30
0.0
 40
3.0
  1
188724
 41
0.9
  7
CONVERTER_11
100
AcDbText
  0
TEXT
  5
120
330
7A
100
AcDbEntity
  8
1
 62
     4
100
AcDbText
 10
284.69411940999
 20
95.55394021882262
 30
0.0
 40
3.0
  1
188725
 41
0.9
  7
CONVERTER_11
100
AcDbText
  0
TEXT
  5
121
330
7A
100
AcDbEntity
  8
1
 62
     4
100
AcDbText
 10
313.181708027164
 20
103.4228895221683
 30
0.0
 40
3.0
  1
188669
 41
0.9
  7
CONVERTER_11
100
AcDbText
  0
TEXT
  5
122
330
7A
100
AcDbEntity
  8
1
 62
     4
100
AcDbText
 10
312.98249412075
 20
95.85276107844332
 30
0.0
 40
3.0
  1
188670
 41
0.9
  7
CONVERTER_11
100
AcDbText
  0
TEXT
  5
123
330
7A
100
AcDbEntity
  8
1
 62
     4
100
AcDbText
 10
313.181708027164
 20
87.58538396227031
 30
0.0
 40
3.0
  1
188671
 41
0.9
  7
CONVERTER_11
100
AcDbText
  0
ENDBLK
  5
7C
330
7A
100
AcDbEntity
  8
0
100
AcDbBlockEnd
  0
BLOCK
  5
7E
330
7D
100
AcDbEntity
  8
0
100
AcDbBlockBegin
  2
70710-2-0511__2
 70
     0
 10
86.91398107963141
 20
153.2779985640904
 30
0.0
  3
70710-2-0511__2
  1
70710-2-0511__2
  0
LINE
  5
124
330
7D
100
AcDbEntity
  8
0
  6
Continuous
 62
     2
100
AcDbLine
 10
88.8945172171145
 20
157.177188813445
 30
0.0
 11
97.0113430793478
 21
214.9314057954439
 31
0.0
  0
LINE
  5
125
330
7D
100
AcDbEntity
  8
0
  6
Continuous
 62
     2
100
AcDbLine
 10
131.0979936833947
 20
232.7399102421148
 30
0.0
 11
132.0979936833947
 21
232.7399102421148
 31
0.0
  0
LINE
  5
126
330
7D
100
AcDbEntity
  8
0
  6
Continuous
 62
     1
100
AcDbLine
 10
131.0979936833947
 20
231.2575483323199
 30
0.0
 11
131.0979936833947
 21
232.7399102421148
 31
0.0
  0
LINE
  5
127
330
7D
100
AcDbEntity
  8
0
  6
Continuous
 62
     1
100
AcDbLine
 10
131.0979936833947
 20
231.2575483323199
 30
0.0
 11
132.0979936833947
 21
231.2575483323199
 31
0.0
  0
LINE
  5
128
330
7D
100
AcDbEntity
  8
0
  6
Continuous
 62
     1
100
AcDbLine
 10
88.8945172171145
 20
157.177188813445
 30
0.0
 11
87.90424914837297
 21
157.3163619144051
 31
0.0
  0
LINE
  5
129
330
7D
100
AcDbEntity
  8
0
  6
Continuous
 62
     1
100
AcDbLine
 10
116.6386974591882
 20
153.2779985640904
 30
0.0
 11
88.8945172171145
 21
157.177188813445
 31
0.0
  0
LINE
  5
12A
330
7D
100
AcDbEntity
  8
0
  6
Continuous
 62
     1
100
AcDbLine
 10
124.0495713526358
 20
153.2779985640904
 30
0.0
 11
116.6386974591882
 21
153.2779985640904
 31
0.0
  0
LINE
  5
12B
330
7D
100
AcDbEntity
  8
0
  6
Continuous
 62
     1
100
AcDbLine
 10
97.0113430793478
 20
214.9314057954439
 30
0.0
 11
123.3537058478349
 21
211.2292281439275
 31
0.0
  0
LINE
  5
12C
330
7D
100
AcDbEntity
  8
0
  6
Continuous
 62
     2
100
AcDbLine
 10
97.0113430793478
 20
214.9314057954439
 30
0.0
 11
100.6178586666855
 21
240.593097608894
 31
0.0
  0
LINE
  5
12D
330
7D
100
AcDbEntity
  8
0
  6
Continuous
 62
     1
100
AcDbLine
 10
96.02107501060615
 20
215.070578896404
 30
0.0
 11
97.0113430793478
 21
214.9314057954439
 31
0.0
  0
LINE
  5
12E
330
7D
100
AcDbEntity
  8
0
  6
Continuous
 62
     1
100
AcDbLine
 10
95.03080694186457
 20
215.209751997364
 30
0.0
 11
98.51013446586622
 21
239.9664537159033
 31
0.0
  0
LINE
  5
12F
330
7D
100
AcDbEntity
  8
0
  6
Continuous
 62
     1
100
AcDbLine
 10
129.0637033596731
 20
241.6865093488459
 30
0.0
 11
130.0630941866922
 21
241.7214088455484
 31
0.0
  0
LINE
  5
130
330
7D
100
AcDbEntity
  8
0
  6
Continuous
 62
     2
100
AcDbLine
 10
130.0630941866922
 20
241.7214088455484
 30
0.0
 11
130.0281946899897
 21
242.7207996725675
 31
0.0
  0
LINE
  5
131
330
7D
100
AcDbEntity
  8
0
  6
Continuous
 62
     1
100
AcDbLine
 10
129.0288038629706
 20
242.685900175865
 30
0.0
 11
130.0281946899897
 21
242.7207996725675
 31
0.0
  0
LINE
  5
132
330
7D
100
AcDbEntity
  8
0
  6
Continuous
 62
     1
100
AcDbLine
 10
129.0288038629706
 20
242.685900175865
 30
0.0
 11
129.0637033596731
 21
241.6865093488459
 31
0.0
  0
LINE
  5
133
330
7D
100
AcDbEntity
  8
0
  6
Continuous
 62
     1
100
AcDbLine
 10
100.6178586666855
 20
240.593097608894
 30
0.0
 11
129.0495713526359
 21
241.5859548938558
 31
0.0
  0
LINE
  5
134
330
7D
100
AcDbEntity
  8
0
  6
Continuous
 62
     1
100
AcDbLine
 10
100.6319906737231
 20
240.6936520638842
 30
0.0
 11
100.4557711066469
 21
240.6874983410024
 31
0.0
  0
LINE
  5
135
330
7D
100
AcDbEntity
  8
0
  6
Continuous
 62
     1
100
AcDbLine
 10
100.5970911770206
 20
241.6930428909033
 30
0.0
 11
100.6319906737231
 21
240.6936520638842
 31
0.0
  0
LINE
  5
136
330
7D
100
AcDbEntity
  8
0
  6
Continuous
 62
     1
100
AcDbLine
 10
100.4208716099444
 20
241.6868891680215
 30
0.0
 11
100.5970911770206
 21
241.6930428909033
 31
0.0
  0
LINE
  5
137
330
7D
100
AcDbEntity
  8
0
  6
Continuous
 62
     2
100
AcDbLine
 10
100.4557711066469
 20
240.6874983410024
 30
0.0
 11
100.4208716099444
 21
241.6868891680215
 31
0.0
  0
LINE
  5
138
330
7D
100
AcDbEntity
  8
0
  6
Continuous
 62
     1
100
AcDbLine
 10
100.5970911770206
 20
241.6930428909033
 30
0.0
 11
129.0288038629706
 21
242.685900175865
 31
0.0
  0
LINE
  5
139
330
7D
100
AcDbEntity
  8
0
  6
Continuous
 62
     1
100
AcDbLine
 10
100.6319906737231
 20
240.6936520638842
 30
0.0
 11
129.0637033596731
 21
241.6865093488459
 31
0.0
  0
LINE
  5
13A
330
7D
100
AcDbEntity
  8
0
  6
Continuous
 62
     1
100
AcDbLine
 10
129.0495713526352
 20
216.1805684876353
 30
0.0
 11
129.0495713526359
 21
241.5859548938558
 31
0.0
  0
LINE
  5
13B
330
7D
100
AcDbEntity
  8
0
  6
Continuous
 62
     1
100
AcDbLine
 10
129.0495713526352
 20
216.1805684876353
 30
0.0
 11
129.0495713526358
 21
158.2779985640904
 31
0.0
  0
LINE
  5
13C
330
7D
100
AcDbEntity
  8
0
  6
Continuous
 62
     1
100
AcDbLine
 10
96.02107501060615
 20
215.070578896404
 30
0.0
 11
87.90424914837297
 21
157.3163619144051
 31
0.0
  0
LINE
  5
13D
330
7D
100
AcDbEntity
  8
0
  6
Continuous
 62
     1
100
AcDbLine
 10
86.91398107963141
 20
157.4555350153652
 30
0.0
 11
87.90424914837297
 21
157.3163619144051
 31
0.0
  0
LINE
  5
13E
330
7D
100
AcDbEntity
  8
0
  6
Continuous
 62
     1
100
AcDbLine
 10
95.03080694186457
 20
215.209751997364
 30
0.0
 11
96.02107501060615
 21
215.070578896404
 31
0.0
  0
LINE
  5
13F
330
7D
100
AcDbEntity
  8
0
  6
Continuous
 62
     1
100
AcDbLine
 10
95.03080694186457
 20
215.209751997364
 30
0.0
 11
86.91398107963141
 21
157.4555350153652
 31
0.0
  0
LINE
  5
140
330
7D
100
AcDbEntity
  8
0
  6
Continuous
 62
     1
100
AcDbLine
 10
132.0979936833947
 20
232.7399102421148
 30
0.0
 11
132.0979936833947
 21
231.2575483323199
 31
0.0
  0
LINE
  5
141
330
7D
100
AcDbEntity
  8
0
  6
Continuous
 62
     1
100
AcDbLine
 10
132.0979936833947
 20
240.7220180185293
 30
0.0
 11
132.0979936833947
 21
232.7399102421148
 31
0.0
  0
LINE
  5
142
330
7D
100
AcDbEntity
  8
0
  6
Continuous
 62
     1
100
AcDbLine
 10
131.0979936833947
 20
240.7220180185293
 30
0.0
 11
131.0979936833947
 21
232.7399102421148
 31
0.0
  0
LINE
  5
143
330
7D
100
AcDbEntity
  8
0
  6
Continuous
 62
     2
100
AcDbLine
 10
131.0979936833947
 20
240.7220180185293
 30
0.0
 11
132.0979936833947
 21
240.7220180185293
 31
0.0
  0
ARC
  5
144
330
7D
100
AcDbEntity
  8
0
  6
Continuous
 62
     1
100
AcDbCircle
 10
124.0495713526358
 20
158.2779985640904
 30
0.0
 40
5.0
100
AcDbArc
 50
270.0
 51
0.0
  0
ARC
  5
145
330
7D
100
AcDbEntity
  8
0
  6
Continuous
 62
     1
100
AcDbCircle
 10
124.0495713526352
 20
216.1805684876354
 30
0.0
 40
5.000000000000069
100
AcDbArc
 50
262.0000000000005
 51
359.9999999999987
  0
ARC
  5
146
330
7D
100
AcDbEntity
  8
0
  6
Continuous
 62
     1
100
AcDbCircle
 10
130.0979936833947
 20
240.7220180185293
 30
0.0
 40
2.0
100
AcDbArc
 50
0.0
 51
91.99999999999957
  0
ARC
  5
147
330
7D
100
AcDbEntity
  8
0
  6
Continuous
 62
     1
100
AcDbCircle
 10
130.0979936833947
 20
240.7220180185293
 30
0.0
 40
1.0
100
AcDbArc
 50
0.0
 51
91.99999999999874
  0
ARC
  5
148
330
7D
100
AcDbEntity
  8
0
  6
Continuous
 62
     1
100
AcDbCircle
 10
100.4906706033494
 20
239.6881075139833
 30
0.0
 40
0.9999999999999883
100
AcDbArc
 50
91.99999999999962
 51
127.404931830715
  0
ARC
  5
149
330
7D
100
AcDbEntity
  8
0
  6
Continuous
 62
     1
100
AcDbCircle
 10
100.4906706033494
 20
239.6881075139833
 30
0.0
 40
2.000000000000005
100
AcDbArc
 50
91.99999999999997
 51
172.0000000000043
  0
SPLINE
  5
14A
330
7D
100
AcDbEntity
  8
0
  6
Continuous
 62
     1
100
AcDbSpline
210
0.0
220
0.0
230
1.0
 70
     8
 71
     3
 72
    15
 73
    11
 74
     9
 42
0.000000001
 43
0.0000000001
 44
0.00000001
 40
0.0
 40
0.0
 40
0.0
 40
0.0
 40
0.0809890115306545
 40
0.1935511278513177
 40
0.4267814982660947
 40
0.7730585877588675
 40
1.176650612813551
 40
1.656765282016179
 40
1.954746025501034
 40
2.260272351645367
 40
2.260272351645367
 40
2.260272351645367
 40
2.260272351645367
 10
98.51013446586622
 20
239.9664537159033
 30
0.0
 10
98.51802714001674
 20
239.9926977141822
 30
0.0
 10
98.53688939062846
 20
240.0554167880422
 30
0.0
 10
98.64727734179539
 20
240.1538257584832
 30
0.0
 10
98.8551999980738
 20
240.2541324204282
 30
0.0
 10
99.17102266765477
 20
240.3467862414566
 30
0.0
 10
99.57207541367356
 20
240.4313806491277
 30
0.0
 10
99.96078634625812
 20
240.4960427730151
 30
0.0
 10
100.3179574135845
 20
240.5497690361698
 30
0.0
 10
100.5170617894466
 20
240.5785348624673
 30
0.0
 10
100.6178586666855
 20
240.593097608894
 30
0.0
 11
98.51013446586622
 21
239.9664537159033
 31
0.0
 11
98.53927531801502
 21
240.0420184669977
 31
0.0
 11
98.61759725811719
 21
240.1228633973513
 31
0.0
 11
98.8231906173501
 21
240.2329895783333
 31
0.0
 11
99.15337951324415
 21
240.3373117490704
 31
0.0
 11
99.54765543761297
 21
240.423526700796
 31
0.0
 11
100.0208949223274
 21
240.5044864779024
 31
0.0
 11
100.3155150046081
 21
240.549113045776
 31
0.0
 11
100.6178586666855
 21
240.593097608894
 31
0.0
  0
ENDBLK
  5
7F
330
7D
100
AcDbEntity
  8
0
100
AcDbBlockEnd
  0
BLOCK
  5
82
330
80
100
AcDbEntity
  8
0
100
AcDbBlockBegin
  2
SA_RechtsA
 70
     0
 10
109.5059870000002
 20
198.0000000000004
 30
0.0
  3
SA_RechtsA
  1
SA_RechtsA
  0
INSERT
  5
81
330
80
100
AcDbEntity
  8
0
100
AcDbBlockReference
  2
70710-2-0511__2
 10
86.91398107963141
 20
153.2779985640904
 30
0.0
  0
LINE
  5
14B
330
80
100
AcDbEntity
  8
1
  6
Continuous
 62
     3
100
AcDbLine
 10
98.51013446586622
 20
239.9664537159033
 30
0.0
 11
98.74369466123638
 21
241.6283208583988
 31
0.0
  0
LINE
  5
14C
330
80
100
AcDbEntity
  8
1
  6
Continuous
 62
     3
100
AcDbLine
 10
100.5970911770206
 20
241.6930428909033
 30
0.0
 11
98.74369466123638
 21
241.6283208583988
 31
0.0
  0
MTEXT
  5
14D
330
80
100
AcDbEntity
  8
1
 62
     1
100
AcDbMText
 10
109.505987717082
 20
247.732139376475
 30
0.0
 40
3.5
 41
0.0
 71
     8
 72
     1
  1
 
  7
CONVERTER_11
 73
     1
 44
1.02040816326531
  0
DIMENSION
  5
158
330
80
100
AcDbEntity
  8
1
100
AcDbDimension
  2
*D12
 10
98.74369466123638
 20
251.439935230676
 30
0.0
 11
116.327503081643
 21
255.189935230676
 31
0.0
 70
    32
  1
<>
 71
     5
 42
-1.0
 53
0.00013888888889
  3
ME10_DIM_10
100
AcDbAlignedDimension
 13
132.0979936833947
 23
240.7220180185293
 33
0.0
 14
98.74369466123638
 24
241.6283208583988
 34
0.0
100
AcDbRotatedDimension
  0
DIMENSION
  5
163
330
80
100
AcDbEntity
  8
1
100
AcDbDimension
  2
*D13
 10
146.045084486197
 20
242.7207996725675
 30
0.0
 11
142.295084486197
 21
197.70509006837
 31
0.0
 70
    32
  1
<>
 71
     5
 42
-1.0
 53
90.0
  3
ME10_DIM_11
100
AcDbAlignedDimension
 13
124.0495713526358
 23
153.2779985640904
 33
0.0
 14
130.0281946899897
 24
242.7207996725675
 34
0.0
 50
90.0
100
AcDbRotatedDimension
  0
DIMENSION
  5
170
330
80
100
AcDbEntity
  8
1
100
AcDbDimension
  2
*D14
 10
106.9884601395227
 20
141.7772495677561
 30
0.0
 11
108.3279415919924
 21
145.4446131397342
 31
0.0
 70
    37
  1
<>
 71
     5
 42
-1.0
  3
ME10_DIM_12
100
AcDb3PointAngularDimension
 13
95.03080694186457
 23
215.209751997364
 33
0.0
 14
129.0495713526352
 24
216.1805684876353
 34
0.0
 15
129.0495713526357
 25
457.2658382786864
 35
0.0
  0
ENDBLK
  5
83
330
80
100
AcDbEntity
  8
0
100
AcDbBlockEnd
  0
BLOCK
  5
85
330
84
100
AcDbEntity
  8
0
100
AcDbBlockBegin
  2
70710-2-0511__3
 70
     0
 10
196.1039949761777
 20
153.2779985640897
 30
0.0
  3
70710-2-0511__3
  1
70710-2-0511__3
  0
LINE
  5
171
330
84
100
AcDbEntity
  8
0
  6
Continuous
 62
     1
100
AcDbLine
 10
389.4039949761779
 20
211.1805684876347
 30
0.0
 11
388.4039949761779
 21
211.1805684876347
 31
0.0
  0
LINE
  5
172
330
84
100
AcDbEntity
  8
0
  6
Continuous
 62
     1
100
AcDbLine
 10
389.4039949761778
 20
214.9314057954431
 30
0.0
 11
389.4039949761778
 21
240.5930976088933
 31
0.0
  0
LINE
  5
173
330
84
100
AcDbEntity
  8
0
  6
Continuous
 62
     1
100
AcDbLine
 10
388.4039949761778
 20
214.9314057954432
 30
0.0
 11
388.403994976178
 21
211.2292281439269
 31
0.0
  0
LINE
  5
174
330
84
100
AcDbEntity
  8
0
  6
Continuous
 62
     1
100
AcDbLine
 10
389.403994976178
 20
241.6930428909026
 30
0.0
 11
389.403994976178
 21
242.6859001758643
 31
0.0
  0
LINE
  5
175
330
84
100
AcDbEntity
  8
0
  6
Continuous
 62
     1
100
AcDbLine
 10
339.1533113755833
 20
242.6510006791618
 30
0.0
 11
339.1533113755833
 21
242.5812016857568
 31
0.0
  0
LINE
  5
176
330
84
100
AcDbEntity
  8
0
  6
Continuous
 62
     2
100
AcDbLine
 10
389.2486902103321
 20
240.6874983410017
 30
0.0
 11
389.248690210332
 21
241.6868891680207
 31
0.0
  0
LINE
  5
177
330
84
100
AcDbEntity
  8
0
  6
Continuous
 62
     2
100
AcDbLine
 10
387.4039949761778
 20
215.2097519973634
 30
0.0
 11
387.4039949761778
 21
239.9664537159027
 31
0.0
  0
LINE
  5
178
330
84
100
AcDbEntity
  8
0
  6
Continuous
 62
     1
100
AcDbLine
 10
388.7142289224786
 20
240.5930976088933
 30
0.0
 11
389.4039949761778
 21
240.5930976088933
 31
0.0
  0
LINE
  5
179
330
84
100
AcDbEntity
  8
0
  6
Continuous
 62
     2
100
AcDbLine
 10
388.403994976178
 20
211.2292281439269
 30
0.0
 11
389.4039949761779
 21
211.2292281439268
 31
0.0
  0
LINE
  5
17A
330
84
100
AcDbEntity
  8
0
  6
Continuous
 62
     1
100
AcDbLine
 10
389.4039949761778
 20
214.9314057954431
 30
0.0
 11
389.4039949761779
 21
211.2292281439268
 31
0.0
  0
LINE
  5
17B
330
84
100
AcDbEntity
  8
0
  6
Continuous
 62
     1
100
AcDbLine
 10
388.4039949761779
 20
211.1805684876347
 30
0.0
 11
388.403994976178
 21
211.2292281439269
 31
0.0
  0
LINE
  5
17C
330
84
100
AcDbEntity
  8
0
  6
Continuous
 62
     1
100
AcDbLine
 10
389.4039949761779
 20
211.2292281439268
 30
0.0
 11
389.4039949761779
 21
211.1805684876347
 31
0.0
  0
LINE
  5
17D
330
84
100
AcDbEntity
  8
0
  6
Continuous
 62
     1
100
AcDbLine
 10
326.8713320348506
 20
242.7220180185286
 30
0.0
 11
209.936657917505
 21
242.7220180185286
 31
0.0
  0
LINE
  5
17E
330
84
100
AcDbEntity
  8
0
  6
Continuous
 62
     1
100
AcDbLine
 10
209.936657917505
 20
242.7220180185286
 30
0.0
 11
209.9226277692035
 21
242.7207996725668
 31
0.0
  0
LINE
  5
17F
330
84
100
AcDbEntity
  8
0
  6
Continuous
 62
     2
100
AcDbLine
 10
326.8853621831522
 20
242.7207996725668
 30
0.0
 11
209.9226277692035
 21
242.7207996725668
 31
0.0
  0
LINE
  5
180
330
84
100
AcDbEntity
  8
0
  6
Continuous
 62
     1
100
AcDbLine
 10
389.403994976178
 20
242.6859001758643
 30
0.0
 11
340.1533113755833
 21
242.6859001758643
 31
0.0
  0
LINE
  5
181
330
84
100
AcDbEntity
  8
0
  6
Continuous
 62
     1
100
AcDbLine
 10
326.8853621831522
 20
242.7207996725668
 30
0.0
 11
326.8713320348506
 21
242.7220180185286
 31
0.0
  0
LINE
  5
182
330
84
100
AcDbEntity
  8
0
  6
Continuous
 62
     1
100
AcDbLine
 10
208.781480645358
 20
242.5721690313457
 30
0.0
 11
209.9226277692035
 21
242.7207996725668
 31
0.0
  0
LINE
  5
183
330
84
100
AcDbEntity
  8
0
  6
Continuous
 62
     1
100
AcDbLine
 10
207.815554819069
 20
242.5463021890543
 30
0.0
 11
196.1039949761777
 21
242.5463021890543
 31
0.0
  0
LINE
  5
184
330
84
100
AcDbEntity
  8
0
  6
Continuous
 62
     1
100
AcDbLine
 10
196.1039949761777
 20
241.6930428909026
 30
0.0
 11
196.1039949761777
 21
242.5463021890543
 31
0.0
  0
LINE
  5
185
330
84
100
AcDbEntity
  8
0
  6
Continuous
 62
     1
100
AcDbLine
 10
196.1039949761778
 20
240.6936520638835
 30
0.0
 11
196.1039949761777
 21
241.6930428909026
 31
0.0
  0
LINE
  5
186
330
84
100
AcDbEntity
  8
0
  6
Continuous
 62
     1
100
AcDbLine
 10
196.1039949761778
 20
240.5930976088933
 30
0.0
 11
196.1039949761778
 21
240.6936520638835
 31
0.0
  0
LINE
  5
187
330
84
100
AcDbEntity
  8
0
  6
Continuous
 62
     1
100
AcDbLine
 10
196.2592997420236
 20
240.6874983410017
 30
0.0
 11
196.1039949761778
 21
240.6936520638835
 31
0.0
  0
LINE
  5
188
330
84
100
AcDbEntity
  8
0
  6
Continuous
 62
     2
100
AcDbLine
 10
196.2592997420236
 20
240.6874983410017
 30
0.0
 11
196.2592997420236
 21
241.6868891680207
 31
0.0
  0
LINE
  5
189
330
84
100
AcDbEntity
  8
0
  6
Continuous
 62
     2
100
AcDbLine
 10
198.1039949761778
 20
239.9664537159026
 30
0.0
 11
198.1039949761779
 21
157.4555350153644
 31
0.0
  0
LINE
  5
18A
330
84
100
AcDbEntity
  8
0
  6
Continuous
 62
     1
100
AcDbLine
 10
196.1039949761778
 20
240.5930976088933
 30
0.0
 11
196.1039949761779
 21
157.1771888134442
 31
0.0
  0
LINE
  5
18B
330
84
100
AcDbEntity
  8
0
  6
Continuous
 62
     1
100
AcDbLine
 10
196.1039949761777
 20
153.2779985640897
 30
0.0
 11
196.1039949761779
 21
157.1771888134442
 31
0.0
  0
LINE
  5
18C
330
84
100
AcDbEntity
  8
0
  6
Continuous
 62
     1
100
AcDbLine
 10
196.1039949761777
 20
153.2779985640897
 30
0.0
 11
197.1039949761777
 21
153.2779985640897
 31
0.0
  0
LINE
  5
18D
330
84
100
AcDbEntity
  8
0
  6
Continuous
 62
     1
100
AcDbLine
 10
197.1039949761777
 20
153.2779985640897
 30
0.0
 11
197.1039949761779
 21
157.1771888134441
 31
0.0
  0
LINE
  5
18E
330
84
100
AcDbEntity
  8
0
  6
Continuous
 62
     2
100
AcDbLine
 10
216.1836900561337
 20
212.6477383606013
 30
0.0
 11
216.1836900561337
 21
212.7869114615614
 31
0.0
  0
LINE
  5
18F
330
84
100
AcDbEntity
  8
0
  6
Continuous
 62
     1
100
AcDbLine
 10
338.1533113755833
 20
242.5463021890543
 30
0.0
 11
328.9924351332868
 21
242.5463021890543
 31
0.0
  0
LINE
  5
190
330
84
100
AcDbEntity
  8
0
  6
Continuous
 62
     1
100
AcDbLine
 10
387.4039949761778
 20
215.0705788964033
 30
0.0
 11
387.4039949761778
 21
215.2097519973634
 31
0.0
  0
LINE
  5
191
330
84
100
AcDbEntity
  8
0
  6
Continuous
 62
     1
100
AcDbLine
 10
241.3350636956941
 20
218.5675260207795
 30
0.0
 11
242.544612839046
 21
221.3558983545556
 31
0.0
  0
LINE
  5
192
330
84
100
AcDbEntity
  8
0
  6
Continuous
 62
     1
100
AcDbLine
 10
196.2592997420236
 20
241.6868891680207
 30
0.0
 11
196.1039949761777
 21
241.6930428909026
 31
0.0
  0
LINE
  5
193
330
84
100
AcDbEntity
  8
0
  6
Continuous
 62
     2
100
AcDbLine
 10
241.3616256412591
 20
222.562661407028
 30
0.0
 11
241.3616256412591
 21
222.701834507988
 31
0.0
  0
LINE
  5
194
330
84
100
AcDbEntity
  8
0
  6
Continuous
 62
     1
100
AcDbLine
 10
389.248690210332
 20
241.6868891680207
 30
0.0
 11
389.403994976178
 21
241.6930428909026
 31
0.0
  0
LINE
  5
195
330
84
100
AcDbEntity
  8
0
  6
Continuous
 62
     1
100
AcDbLine
 10
198.1039949761779
 20
157.4555350153644
 30
0.0
 11
318.3850145288491
 21
157.4555350153644
 31
0.0
  0
LINE
  5
196
330
84
100
AcDbEntity
  8
0
  6
Continuous
 62
     1
100
AcDbLine
 10
196.7937429158186
 20
240.5930976088933
 30
0.0
 11
196.1039949761778
 21
240.5930976088933
 31
0.0
  0
LINE
  5
197
330
84
100
AcDbEntity
  8
0
  6
Continuous
 62
     1
100
AcDbLine
 10
198.1039949761779
 20
157.3163619144042
 30
0.0
 11
318.3850145288491
 21
157.3163619144044
 31
0.0
  0
LINE
  5
198
330
84
100
AcDbEntity
  8
0
  6
Continuous
 62
     2
100
AcDbLine
 10
318.3850145288491
 20
157.3163619144044
 30
0.0
 11
318.3850145288491
 21
157.4555350153644
 31
0.0
  0
LINE
  5
199
330
84
100
AcDbEntity
  8
0
  6
Continuous
 62
     1
100
AcDbLine
 10
328.0265093069977
 20
242.5721690313457
 30
0.0
 11
326.8853621831522
 21
242.7207996725668
 31
0.0
  0
LINE
  5
19A
330
84
100
AcDbEntity
  8
0
  6
Continuous
 62
     2
100
AcDbLine
 10
198.1039949761778
 20
239.9664537159026
 30
0.0
 11
387.4039949761778
 21
239.9664537159027
 31
0.0
  0
LINE
  5
19B
330
84
100
AcDbEntity
  8
0
  6
Continuous
 62
     2
100
AcDbLine
 10
196.2592997420236
 20
241.6868891680207
 30
0.0
 11
389.248690210332
 21
241.6868891680207
 31
0.0
  0
LINE
  5
19C
330
84
100
AcDbEntity
  8
0
  6
Continuous
 62
     1
100
AcDbLine
 10
389.403994976178
 20
240.6936520638835
 30
0.0
 11
389.2486902103321
 21
240.6874983410017
 31
0.0
  0
LINE
  5
19D
330
84
100
AcDbEntity
  8
0
  6
Continuous
 62
     1
100
AcDbLine
 10
389.403994976178
 20
241.6930428909026
 30
0.0
 11
389.403994976178
 21
240.6936520638835
 31
0.0
  0
LINE
  5
19E
330
84
100
AcDbEntity
  8
0
  6
Continuous
 62
     1
100
AcDbLine
 10
389.4039949761778
 20
240.5930976088933
 30
0.0
 11
389.403994976178
 21
240.6936520638835
 31
0.0
  0
ARC
  5
19F
330
84
100
AcDbEntity
  8
0
  6
Continuous
 62
     1
100
AcDbCircle
 10
241.6436267531018
 20
221.7469016699576
 30
0.0
 40
0.982170820031018
100
AcDbArc
 50
336.5404753701795
 51
359.9908670006601
  0
SPLINE
  5
1A0
330
84
100
AcDbEntity
  8
0
  6
Continuous
 62
     1
100
AcDbSpline
210
0.0
220
0.0
230
1.0
 70
     8
 71
     3
 72
    13
 73
     9
 74
     7
 42
0.000000001
 43
0.0000000001
 44
0.00000001
 40
0.0
 40
0.0
 40
0.0
 40
0.0
 40
16.1867953998134
 40
32.40017825916645
 40
48.648799499718
 40
64.93371057738277
 40
81.24818581390389
 40
97.57919828862919
 40
97.57919828862919
 40
97.57919828862919
 40
97.57919828862919
 10
387.4039949761778
 20
215.2097519973634
 30
0.0
 10
386.1279035424647
 20
209.9411838983384
 30
0.0
 10
383.5736246298912
 20
199.3953938703676
 30
0.0
 10
375.1854326951238
 20
185.2566440683052
 30
0.0
 10
363.9770158108951
 20
173.3165855984231
 30
0.0
 10
350.2171781676245
 20
164.3735281746992
 30
0.0
 10
334.7476723874952
 20
158.5535839628919
 30
0.0
 10
323.8410754687347
 20
157.8216749142316
 30
0.0
 10
318.3850145288491
 20
157.4555350153644
 30
0.0
 11
387.4039949761778
 21
215.2097519973634
 31
0.0
 11
382.8188967119908
 21
199.685924528721
 31
0.0
 11
374.7258200845911
 21
185.6368713748068
 31
0.0
 11
363.5653473394461
 21
173.8274878011274
 31
0.0
 11
349.9451185688633
 21
164.9006912250915
 31
0.0
 11
334.6066442096158
 21
159.3425164666732
 31
0.0
 11
318.3850145288491
 21
157.4555350153644
 31
0.0
  0
SPLINE
  5
1A1
330
84
100
AcDbEntity
  8
0
  6
Continuous
 62
     1
100
AcDbSpline
210
0.0
220
0.0
230
1.0
 70
     8
 71
     3
 72
    12
 73
     8
 74
     6
 42
0.000000001
 43
0.0000000001
 44
0.00000001
 40
0.0
 40
0.0
 40
0.0
 40
0.0
 40
0.7656577835574158
 40
1.417306171464561
 40
1.741074223983717
 40
1.950689275500616
 40
2.050256824474172
 40
2.050256824474172
 40
2.050256824474172
 40
2.050256824474172
 10
387.4039949761778
 20
215.2097519973634
 30
0.0
 10
387.6586497238403
 20
215.2052981335033
 30
0.0
 10
388.1300401447883
 20
215.1970536142803
 30
0.0
 10
388.7150088480788
 20
215.1539792509984
 30
0.0
 10
389.0942066276702
 20
215.0766416174741
 30
0.0
 10
389.3161873648843
 20
215.0392378121493
 30
0.0
 10
389.3826058952178
 20
214.9576726195979
 30
0.0
 10
389.4039949761778
 20
214.9314057954431
 30
0.0
 11
387.4039949761778
 21
215.2097519973634
 31
0.0
 11
388.169359513814
 21
215.1885633724607
 31
0.0
 11
388.818208538551
 21
215.1282262823384
 31
0.0
 11
389.1367714410279
 21
215.0704038924086
 31
0.0
 11
389.3354705905613
 21
215.003642252253
 31
0.0
 11
389.4039949761778
 21
214.9314057954431
 31
0.0
  0
SPLINE
  5
1A2
330
84
100
AcDbEntity
  8
0
  6
Continuous
 62
     1
100
AcDbSpline
210
0.0
220
0.0
230
1.0
 70
     8
 71
     3
 72
    12
 73
     8
 74
     6
 42
0.000000001
 43
0.0000000001
 44
0.00000001
 40
0.0
 40
0.0
 40
0.0
 40
0.0
 40
0.3828288944644961
 40
0.7086530884623743
 40
0.8705371148921153
 40
0.9753446420827534
 40
1.025128415796291
 40
1.025128415796291
 40
1.025128415796291
 40
1.025128415796291
 10
387.4039949761778
 20
215.0705788964033
 30
0.0
 10
387.5313223509023
 20
215.0683519644576
 30
0.0
 10
387.767017561918
 20
215.0642297103296
 30
0.0
 10
388.0595019162358
 20
215.0426925281594
 30
0.0
 10
388.2491008035162
 20
215.0040237089527
 30
0.0
 10
388.3600911775935
 20
214.9853218103197
 30
0.0
 10
388.393300435864
 20
214.9445392073166
 30
0.0
 10
388.4039949761778
 20
214.9314057954432
 30
0.0
 11
387.4039949761778
 21
215.0705788964033
 31
0.0
 11
387.7866772449959
 21
215.059984583952
 31
0.0
 11
388.1111017573644
 21
215.0298160388908
 31
0.0
 11
388.2703832086028
 21
215.0009048439259
 31
0.0
 11
388.3697327833696
 21
214.9675240238482
 31
0.0
 11
388.4039949761778
 21
214.9314057954432
 31
0.0
  0
SPLINE
  5
1A3
330
84
100
AcDbEntity
  8
0
  6
Continuous
 62
     1
100
AcDbSpline
210
0.0
220
0.0
230
1.0
 70
     8
 71
     3
 72
    15
 73
    11
 74
     9
 42
0.000000001
 43
0.0000000001
 44
0.00000001
 40
0.0
 40
0.0
 40
0.0
 40
0.0
 40
0.1601558757391226
 40
0.3177682813946541
 40
0.9432309238070338
 40
1.519662710136642
 40
2.020864963260983
 40
2.414860390115437
 40
2.507281613219469
 40
2.598386207091918
 40
2.598386207091918
 40
2.598386207091918
 40
2.598386207091918
 10
387.4039949761778
 20
239.9664537159027
 30
0.0
 10
387.4336749873417
 20
240.0108287350712
 30
0.0
 10
387.4925636489083
 20
240.0988740482135
 30
0.0
 10
387.6693633041345
 20
240.3588566980368
 30
0.0
 10
387.9320828357178
 20
240.7284002314916
 30
0.0
 10
388.297616404411
 20
241.163974605449
 30
0.0
 10
388.6670128359521
 20
241.49167872603
 30
0.0
 10
388.9687161924842
 20
241.638722352403
 30
0.0
 10
389.1573870081423
 20
241.6792324591115
 30
0.0
 10
389.2184017171963
 20
241.6843491723436
 30
0.0
 10
389.248690210332
 20
241.6868891680207
 30
0.0
 11
387.4039949761778
 21
239.9664537159027
 31
0.0
 11
387.4932062053854
 21
240.0994622057468
 31
0.0
 11
387.581853408135
 21
240.229782364956
 31
0.0
 11
387.9485176586356
 21
240.7364981078884
 31
0.0
 11
388.324981042121
 21
241.1730172076176
 31
0.0
 11
388.7092090343525
 21
241.4948440977629
 31
0.0
 11
389.0676100387792
 21
241.6584934632218
 31
0.0
 11
389.1580855757805
 21
241.6773577312793
 31
0.0
 11
389.248690210332
 21
241.6868891680207
 31
0.0
  0
SPLINE
  5
1A4
330
84
100
AcDbEntity
  8
0
  6
Continuous
 62
     1
100
AcDbSpline
210
0.0
220
0.0
230
1.0
 70
     8
 71
     3
 72
    16
 73
    12
 74
    10
 42
0.000000001
 43
0.0000000001
 44
0.00000001
 40
0.0
 40
0.0
 40
0.0
 40
0.0
 40
0.195999093290936
 40
0.3826939380421958
 40
0.5548437194176841
 40
0.707210666296521
 40
0.8097683258766668
 40
0.8915399576170437
 40
0.9514436899672694
 40
0.9884581954993042
 40
1.002073276252708
 40
1.002073276252708
 40
1.002073276252708
 40
1.002073276252708
 10
340.1533113755833
 20
242.6859001758643
 30
0.0
 10
340.0879785375464
 20
242.685772008421
 30
0.0
 10
339.9604142684479
 20
242.6855217717084
 30
0.0
 10
339.7754701662985
 20
242.6835432291157
 30
0.0
 10
339.6051076696649
 20
242.680415863423
 30
0.0
 10
339.4627569917123
 20
242.6765952957976
 30
0.0
 10
339.3507150046811
 20
242.6718405965675
 30
0.0
 10
339.2691617053789
 20
242.6681356732415
 30
0.0
 10
339.2103803794938
 20
242.661738055445
 30
0.0
 10
339.1726782307035
 20
242.6604143197056
 30
0.0
 10
339.1574157072604
 20
242.6529956648467
 30
0.0
 10
339.1533113755833
 20
242.6510006791618
 30
0.0
 11
340.1533113755833
 21
242.6859001758643
 31
0.0
 11
339.9573134533698
 21
242.68522335891
 31
0.0
 11
339.7706291067652
 21
242.6832435118257
 31
0.0
 11
339.5985091992731
 21
242.6800365402797
 31
0.0
 11
339.4462045943967
 21
242.6756783499401
 31
0.0
 11
339.3437326067843
 21
242.6714872543024
 31
0.0
 11
339.2620937019116
 21
242.6668301141291
 31
0.0
 11
339.2024014689638
 21
242.6618007546967
 31
0.0
 11
339.165769497126
 21
242.6564930012821
 31
0.0
 11
339.1533113755833
 21
242.6510006791618
 31
0.0
  0
SPLINE
  5
1A5
330
84
100
AcDbEntity
  8
0
  6
Continuous
 62
     1
100
AcDbSpline
210
0.0
220
0.0
230
1.0
 70
     8
 71
     3
 72
    11
 73
     7
 74
     5
 42
0.000000001
 43
0.0000000001
 44
0.00000001
 40
0.0
 40
0.0
 40
0.0
 40
0.0
 40
0.3664202308635808
 40
0.7218527378127673
 40
1.210772944831018
 40
1.685851980006281
 40
1.685851980006281
 40
1.685851980006281
 40
1.685851980006281
 10
387.7117968786149
 20
240.0521493305315
 30
0.0
 10
387.812486288558
 20
240.1214465020796
 30
0.0
 10
388.0108457759888
 20
240.2579628412931
 30
0.0
 10
388.361477345719
 20
240.4573257515162
 30
0.0
 10
388.7692249849169
 20
240.6357378107442
 30
0.0
 10
389.0904056461733
 20
240.6704107815125
 30
0.0
 10
389.2486902103321
 20
240.6874983410017
 30
0.0
 11
387.7117968786149
 21
240.0521493305315
 31
0.0
 11
388.0166180771348
 21
240.2554909697229
 31
0.0
 11
388.3257287727385
 21
240.4309413777614
 31
0.0
 11
388.7794889649684
 21
240.6129981241261
 31
0.0
 11
389.2486902103321
 21
240.6874983410017
 31
0.0
  0
SPLINE
  5
1A6
330
84
100
AcDbEntity
  8
0
  6
Continuous
 62
     1
100
AcDbSpline
210
0.0
220
0.0
230
1.0
 70
     8
 71
     3
 72
    15
 73
    11
 74
     9
 42
0.000000001
 43
0.0000000001
 44
0.00000001
 40
0.0
 40
0.0
 40
0.0
 40
0.0
 40
0.2344820601036193
 40
0.4865617072780979
 40
0.7662774804609813
 40
1.077985114573941
 40
1.421791118698729
 40
1.794119606637731
 40
2.189300957920149
 40
2.599839530763869
 40
2.599839530763869
 40
2.599839530763869
 40
2.599839530763869
 10
196.2592997420236
 20
241.6868891680207
 30
0.0
 10
196.337173984543
 20
241.6764776201644
 30
0.0
 10
196.4987668312656
 20
241.6548731353573
 30
0.0
 10
196.7326701048536
 20
241.5440363456254
 30
0.0
 10
196.9635983495213
 20
241.3827908574194
 30
0.0
 10
197.192920703147
 20
241.1703024381264
 30
0.0
 10
197.4213562778947
 20
240.9145944348858
 30
0.0
 10
197.6496061811341
 20
240.6225845650639
 30
0.0
 10
197.8779219923201
 20
240.3030040040298
 30
0.0
 10
198.027685801108
 20
240.0800536403254
 30
0.0
 10
198.1039949761778
 20
239.9664537159026
 30
0.0
 11
196.2592997420236
 21
241.6868891680207
 31
0.0
 11
196.4898866462929
 21
241.6443272322187
 31
0.0
 11
196.7204735505622
 21
241.5424752231162
 31
0.0
 11
196.9510604548315
 21
241.384138262787
 31
0.0
 11
197.1816473591007
 21
241.1743971649374
 31
0.0
 11
197.41223426337
 21
240.9193829543015
 31
0.0
 11
197.6428211676393
 21
240.6270506395543
 31
0.0
 11
197.8734080719086
 21
240.3061176560233
 31
0.0
 11
198.1039949761778
 21
239.9664537159026
 31
0.0
  0
SPLINE
  5
1A7
330
84
100
AcDbEntity
  8
0
  6
Continuous
 62
     1
100
AcDbSpline
210
0.0
220
0.0
230
1.0
 70
     8
 71
     3
 72
    11
 73
     7
 74
     5
 42
0.000000001
 43
0.0000000001
 44
0.00000001
 40
0.0
 40
0.0
 40
0.0
 40
0.0
 40
0.4662033111926487
 40
0.9633332978767417
 40
1.318843369640869
 40
1.685833730224016
 40
1.685833730224016
 40
1.685833730224016
 40
1.685833730224016
 10
196.2592997420236
 20
240.6874983410017
 30
0.0
 10
196.4146261148015
 20
240.6709515530902
 30
0.0
 10
196.7355827921512
 20
240.6367602926738
 30
0.0
 10
197.1435596322689
 20
240.4589868030004
 30
0.0
 10
197.4967701707542
 20
240.2582111521378
 30
0.0
 10
197.695311193677
 20
240.1215744269752
 30
0.0
 10
197.796159076097
 20
240.052170502397
 30
0.0
 11
196.2592997420236
 21
240.6874983410017
 31
0.0
 11
196.7199026922313
 21
240.6154535569286
 31
0.0
 11
197.1816473591007
 21
240.43125233946
 31
0.0
 11
197.4908551539849
 21
240.255815879366
 31
0.0
 11
197.796159076097
 21
240.052170502397
 31
0.0
  0
SPLINE
  5
1A8
330
84
100
AcDbEntity
  8
0
  6
Continuous
 62
     1
100
AcDbSpline
210
0.0
220
0.0
230
1.0
 70
     8
 71
     3
 72
    12
 73
     8
 74
     6
 42
0.000000001
 43
0.0000000001
 44
0.00000001
 40
0.0
 40
0.0
 40
0.0
 40
0.0
 40
0.0995675489735553
 40
0.3091826004905623
 40
0.6329506530097795
 40
1.284599040916842
 40
2.050256824474169
 40
2.050256824474169
 40
2.050256824474169
 40
2.050256824474169
 10
196.1039949761779
 20
157.1771888134442
 30
0.0
 10
196.1253840571378
 20
157.2034556375991
 30
0.0
 10
196.1918025874714
 20
157.2850208301503
 30
0.0
 10
196.4137833246854
 20
157.3224246354753
 30
0.0
 10
196.7929811042772
 20
157.3997622689994
 30
0.0
 10
197.3779498075672
 20
157.4428366322816
 30
0.0
 10
197.8493402285156
 20
157.4510811515043
 30
0.0
 10
198.1039949761779
 20
157.4555350153644
 30
0.0
 11
196.1039949761779
 21
157.1771888134442
 31
0.0
 11
196.1725193617944
 21
157.2494252702541
 31
0.0
 11
196.3712185113279
 21
157.3161869104097
 31
0.0
 11
196.6897814138048
 21
157.3740093003395
 31
0.0
 11
197.3386304385418
 21
157.4343463904619
 31
0.0
 11
198.1039949761779
 21
157.4555350153644
 31
0.0
  0
SPLINE
  5
1A9
330
84
100
AcDbEntity
  8
0
  6
Continuous
 62
     1
100
AcDbSpline
210
0.0
220
0.0
230
1.0
 70
     8
 71
     3
 72
    17
 73
    13
 74
    11
 42
0.000000001
 43
0.0000000001
 44
0.00000001
 40
0.0
 40
0.0
 40
0.0
 40
0.0
 40
0.0750086531266088
 40
0.1481887125726781
 40
0.3111989960189336
 40
0.4620636356426699
 40
0.5982936119312809
 40
0.7198849062916628
 40
0.8265076925550672
 40
0.9165447696167518
 40
1.045630388784072
 40
1.116412203344004
 40
1.116412203344004
 40
1.116412203344004
 40
1.116412203344004
 10
197.1377190215252
 20
240.2223205236647
 30
0.0
 10
197.1134752985507
 20
240.2284350629264
 30
0.0
 10
197.0655788735436
 20
240.2405150661897
 30
0.0
 10
196.9650102846285
 20
240.2659389188231
 30
0.0
 10
196.8399813261501
 20
240.2977952349625
 30
0.0
 10
196.6948555531713
 20
240.3357969876537
 30
0.0
 10
196.5633908296717
 20
240.371740944281
 30
0.0
 10
196.4470523732865
 20
240.4061397843217
 30
0.0
 10
196.3454133490066
 20
240.4383390189124
 30
0.0
 10
196.2461061272237
 20
240.4781333754851
 30
0.0
 10
196.1479663688681
 20
240.5118653394537
 30
0.0
 10
196.1154946417817
 20
240.5718532605902
 30
0.0
 10
196.1039949761778
 20
240.5930976088933
 30
0.0
 11
197.1377190215252
 21
240.2223205236647
 31
0.0
 11
197.064989658854
 21
240.2406709228744
 31
0.0
 11
196.9940434068457
 21
240.2586138998642
 31
0.0
 11
196.8361087478538
 21
240.2989747221896
 31
0.0
 11
196.6901964048695
 21
240.3373117490697
 31
0.0
 11
196.5588586279933
 21
240.3734917819198
 31
0.0
 11
196.4422646736314
 21
240.4079923998409
 31
0.0
 11
196.3409549749075
 21
240.4412303819277
 31
0.0
 11
196.2567651281711
 21
240.4731481653384
 31
0.0
 11
196.1429072122817
 21
240.5339714397531
 31
0.0
 11
196.1039949761778
 21
240.5930976088933
 31
0.0
  0
SPLINE
  5
1AA
330
84
100
AcDbEntity
  8
0
  6
Continuous
 62
     1
100
AcDbSpline
210
0.0
220
0.0
230
1.0
 70
     8
 71
     3
 72
    11
 73
     7
 74
     5
 42
0.000000001
 43
0.0000000001
 44
0.00000001
 40
0.0
 40
0.0
 40
0.0
 40
0.0
 40
0.1348553184360702
 40
0.3577172113252128
 40
0.6450894878664402
 40
0.9665339632539676
 40
0.9665339632539676
 40
0.9665339632539676
 40
0.9665339632539676
 10
208.781480645358
 20
242.5721690313457
 30
0.0
 10
208.736681245954
 20
242.5683885646571
 30
0.0
 10
208.6178463596769
 20
242.5583605209694
 30
0.0
 10
208.4027985337453
 20
242.5527743163246
 30
0.0
 10
208.1256555263037
 20
242.5471195699355
 30
0.0
 10
207.9227076878273
 20
242.5465846317948
 30
0.0
 10
207.815554819069
 20
242.5463021890543
 30
0.0
 11
208.781480645358
 21
242.5721690313457
 31
0.0
 11
208.6470235852946
 21
242.5618125839713
 31
0.0
 11
208.4243162480777
 21
242.5535140534734
 31
0.0
 11
208.1369939572856
 21
242.5481543344529
 31
0.0
 11
207.815554819069
 21
242.5463021890543
 31
0.0
  0
SPLINE
  5
1AB
330
84
100
AcDbEntity
  8
0
  6
Continuous
 62
     1
100
AcDbSpline
210
0.0
220
0.0
230
1.0
 70
     8
 71
     3
 72
    14
 73
    10
 74
     8
 42
0.000000001
 43
0.0000000001
 44
0.00000001
 40
0.0
 40
0.0
 40
0.0
 40
0.0
 40
0.139882437752242
 40
0.2684602619466707
 40
0.3747315679660903
 40
0.4691534708131432
 40
0.5520495588385189
 40
0.5654961137114485
 40
0.5785980703850446
 40
0.5785980703850446
 40
0.5785980703850446
 40
0.5785980703850446
 10
197.6261769323608
 20
240.097379367784
 30
0.0
 10
197.5859622910546
 20
240.120982966223
 30
0.0
 10
197.508782952353
 20
240.1662826254145
 30
0.0
 10
197.4034323836358
 20
240.2334674084817
 30
0.0
 10
197.3137864871317
 20
240.2968966284065
 30
0.0
 10
197.240483535245
 20
240.3567259733828
 30
0.0
 10
197.195377898329
 20
240.4018158228591
 30
0.0
 10
197.1719462883763
 20
240.429785817945
 30
0.0
 10
197.1665067042239
 20
240.4367668984384
 30
0.0
 10
197.1638222216383
 20
240.4402121370434
 30
0.0
 11
197.6261769323608
 21
240.097379367784
 31
0.0
 11
197.5059960420858
 21
240.1689590327821
 31
0.0
 11
197.3977863664487
 21
240.2384063009286
 31
0.0
 11
197.3113354678649
 21
240.3002110949478
 31
0.0
 11
197.2386122904665
 21
240.3604343053796
 31
0.0
 11
197.1805510119613
 21
240.4196005825776
 31
0.0
 11
197.1719351856218
 21
240.4299242238916
 31
0.0
 11
197.1638222216383
 21
240.4402121370434
 31
0.0
  0
SPLINE
  5
1AC
330
84
100
AcDbEntity
  8
0
  6
Continuous
 62
     1
100
AcDbSpline
210
0.0
220
0.0
230
1.0
 70
     8
 71
     3
 72
    12
 73
     8
 74
     6
 42
0.000000001
 43
0.0000000001
 44
0.00000001
 40
0.0
 40
0.0
 40
0.0
 40
0.0
 40
0.0497837737134978
 40
0.1545913009041988
 40
0.3164753273339626
 40
0.6422995213317586
 40
1.025128415796283
 40
1.025128415796283
 40
1.025128415796283
 40
1.025128415796283
 10
197.1039949761779
 20
157.1771888134441
 30
0.0
 10
197.1146895164917
 20
157.1903222253175
 30
0.0
 10
197.147898774762
 20
157.2311048283207
 30
0.0
 10
197.2588891488395
 20
157.2498067269535
 30
0.0
 10
197.44848803612
 20
157.2884755461603
 30
0.0
 10
197.7409723904375
 20
157.3100127283306
 30
0.0
 10
197.9766676014535
 20
157.3141349824585
 30
0.0
 10
198.1039949761779
 20
157.3163619144042
 30
0.0
 11
197.1039949761779
 21
157.1771888134441
 31
0.0
 11
197.1382571689861
 21
157.213307041849
 31
0.0
 11
197.2376067437529
 21
157.2466878619268
 31
0.0
 11
197.3968881949913
 21
157.2755990568917
 31
0.0
 11
197.7213127073598
 21
157.3057676019529
 31
0.0
 11
198.1039949761779
 21
157.3163619144042
 31
0.0
  0
SPLINE
  5
1AD
330
84
100
AcDbEntity
  8
0
  6
Continuous
 62
     1
100
AcDbSpline
210
0.0
220
0.0
230
1.0
 70
     8
 71
     3
 72
    11
 73
     7
 74
     5
 42
0.000000001
 43
0.0000000001
 44
0.00000001
 40
0.0
 40
0.0
 40
0.0
 40
0.0
 40
0.4841930753163739
 40
0.9702711023736759
 40
1.458417991133077
 40
1.946965720052174
 40
1.946965720052174
 40
1.946965720052174
 40
1.946965720052174
 10
215.6539955977019
 20
211.912996273441
 30
0.0
 10
215.6781137208183
 20
211.7497702915617
 30
0.0
 10
215.7264438718209
 20
211.4226828968699
 30
0.0
 10
216.0830973985963
 20
211.0544066174014
 30
0.0
 10
216.5643546150834
 20
210.8758199733464
 30
0.0
 10
216.886051460582
 20
210.9601911890945
 30
0.0
 10
217.0469658953819
 20
211.0023941171198
 30
0.0
 11
215.6539955977019
 21
211.912996273441
 31
0.0
 11
215.773403595574
 21
211.4437578830799
 31
0.0
 11
216.1030737782393
 21
211.0865612656486
 31
0.0
 11
216.5643129037968
 21
210.9267305475209
 31
0.0
 11
217.0469658953819
 21
211.0023941171198
 31
0.0
  0
SPLINE
  5
1AE
330
84
100
AcDbEntity
  8
0
  6
Continuous
 62
     1
100
AcDbSpline
210
0.0
220
0.0
230
1.0
 70
     8
 71
     3
 72
     9
 73
     5
 74
     3
 42
0.000000001
 43
0.0000000001
 44
0.00000001
 40
0.0
 40
0.0
 40
0.0
 40
0.0
 40
0.4988592087407474
 40
0.9934904197733545
 40
0.9934904197733545
 40
0.9934904197733545
 40
0.9934904197733545
 10
216.1836900561337
 20
212.6477383606013
 30
0.0
 10
216.0431402819152
 20
212.5473192250924
 30
0.0
 10
215.7632319539255
 20
212.3473320273741
 30
0.0
 10
215.6919505293947
 20
212.0109180506559
 30
0.0
 10
215.6564615018048
 20
211.8434268967803
 30
0.0
 11
216.1836900561337
 21
212.6477383606013
 31
0.0
 11
215.8146423368223
 21
212.3120833390095
 31
0.0
 11
215.6564615018048
 21
211.8434268967803
 31
0.0
  0
SPLINE
  5
1AF
330
84
100
AcDbEntity
  8
0
  6
Continuous
 62
     1
100
AcDbSpline
210
0.0
220
0.0
230
1.0
 70
     8
 71
     3
 72
     9
 73
     5
 74
     3
 42
0.000000001
 43
0.0000000001
 44
0.00000001
 40
0.0
 40
0.0
 40
0.0
 40
0.0
 40
0.5315559461686429
 40
1.060747239957702
 40
1.060747239957702
 40
1.060747239957702
 40
1.060747239957702
 10
216.1836900561337
 20
212.7869114615614
 30
0.0
 10
216.0342954731472
 20
212.6778043968296
 30
0.0
 10
215.7361709107627
 20
212.4600756236186
 30
0.0
 10
215.6813466242972
 20
212.0950848428373
 30
0.0
 10
215.6539955977019
 20
211.912996273441
 30
0.0
 11
216.1836900561337
 21
212.7869114615614
 31
0.0
 11
215.7966028709077
 21
212.4226104352228
 31
0.0
 11
215.6539955977019
 21
211.912996273441
 31
0.0
  0
SPLINE
  5
1B0
330
84
100
AcDbEntity
  8
0
  6
Continuous
 62
     1
100
AcDbSpline
210
0.0
220
0.0
230
1.0
 70
     8
 71
     3
 72
    13
 73
     9
 74
     7
 42
0.000000001
 43
0.0000000001
 44
0.00000001
 40
0.0
 40
0.0
 40
0.0
 40
0.0
 40
16.1867953998134
 40
32.40017825916641
 40
48.64879949971797
 40
64.93371057738275
 40
81.24818581390389
 40
97.57919828862916
 40
97.57919828862916
 40
97.57919828862916
 40
97.57919828862916
 10
387.4039949761778
 20
215.0705788964033
 30
0.0
 10
386.1279035424648
 20
209.8020107973783
 30
0.0
 10
383.5736246298912
 20
199.2562207694075
 30
0.0
 10
375.1854326951238
 20
185.1174709673452
 30
0.0
 10
363.9770158108951
 20
173.1774124974629
 30
0.0
 10
350.2171781676245
 20
164.2343550737391
 30
0.0
 10
334.7476723874955
 20
158.4144108619318
 30
0.0
 10
323.8410754687346
 20
157.6825018132715
 30
0.0
 10
318.3850145288491
 20
157.3163619144044
 30
0.0
 11
387.4039949761778
 21
215.0705788964033
 31
0.0
 11
382.8188967119908
 21
199.5467514277609
 31
0.0
 11
374.7258200845911
 21
185.4976982738467
 31
0.0
 11
363.5653473394461
 21
173.6883147001673
 31
0.0
 11
349.9451185688633
 21
164.7615181241314
 31
0.0
 11
334.6066442096158
 21
159.2033433657131
 31
0.0
 11
318.3850145288491
 21
157.3163619144044
 31
0.0
  0
SPLINE
  5
1B1
330
84
100
AcDbEntity
  8
0
  6
Continuous
 62
     1
100
AcDbSpline
210
0.0
220
0.0
230
1.0
 70
     8
 71
     3
 72
    11
 73
     7
 74
     5
 42
0.000000001
 43
0.0000000001
 44
0.00000001
 40
0.0
 40
0.0
 40
0.0
 40
0.0
 40
0.4166313401688539
 40
0.8361670833586181
 40
1.29092750547905
 40
1.746422164304627
 40
1.746422164304627
 40
1.746422164304627
 40
1.746422164304627
 10
242.6233236659409
 20
221.6772347574817
 30
0.0
 10
242.5957759991263
 20
221.8157115870211
 30
0.0
 10
242.5404886127936
 20
222.093630585703
 30
0.0
 10
242.2410167776997
 20
222.4257735566135
 30
0.0
 10
241.8213491255582
 20
222.6236685743577
 30
0.0
 10
241.5149491861707
 20
222.5830080668581
 30
0.0
 10
241.3616256412591
 20
222.562661407028
 30
0.0
 11
242.6233236659409
 21
221.6772347574817
 31
0.0
 11
242.5062490433238
 21
222.0770787377003
 31
0.0
 11
242.2323567418583
 21
222.3948730901267
 31
0.0
 11
241.8168052466428
 21
222.5795999159701
 31
0.0
 11
241.3616256412591
 21
222.562661407028
 31
0.0
  0
SPLINE
  5
1B2
330
84
100
AcDbEntity
  8
0
  6
Continuous
 62
     1
100
AcDbSpline
210
0.0
220
0.0
230
1.0
 70
     8
 71
     3
 72
    11
 73
     7
 74
     5
 42
0.000000001
 43
0.0000000001
 44
0.00000001
 40
0.0
 40
0.0
 40
0.0
 40
0.0
 40
0.4554946585942574
 40
0.9102550806864265
 40
1.363121297223123
 40
1.814420314434704
 40
1.814420314434704
 40
1.814420314434704
 40
1.814420314434704
 10
241.3616256412591
 20
222.701834507988
 30
0.0
 10
241.5149685243756
 20
222.7221443659685
 30
0.0
 10
241.8214071090929
 20
222.7627313291849
 30
0.0
 10
242.2513044186332
 20
222.5604263184904
 30
0.0
 10
242.5633117166934
 20
222.203089505571
 30
0.0
 10
242.6049930327846
 20
221.8986840339836
 30
0.0
 10
242.625797560655
 20
221.7467451110367
 30
0.0
 11
241.3616256412591
 21
222.701834507988
 31
0.0
 11
241.8168052466428
 21
222.7187730169301
 31
0.0
 11
242.2323567418583
 21
222.5340461910868
 31
0.0
 11
242.5220492202063
 21
222.1859570042661
 31
0.0
 11
242.625797560655
 21
221.7467451110367
 31
0.0
  0
SPLINE
  5
1B3
330
84
100
AcDbEntity
  8
0
  6
Continuous
 62
     1
100
AcDbSpline
210
0.0
220
0.0
230
1.0
 70
     8
 71
     3
 72
     9
 73
     5
 74
     3
 42
0.000000001
 43
0.0000000001
 44
0.00000001
 40
0.0
 40
0.0
 40
0.0
 40
0.0
 40
0.4855567773995808
 40
0.9733055375293842
 40
0.9733055375293842
 40
0.9733055375293842
 40
0.9733055375293842
 10
241.3350636956941
 20
218.5675260207795
 30
0.0
 10
241.2483611865233
 20
218.4239331157984
 30
0.0
 10
241.0745647475064
 20
218.1360990877059
 30
0.0
 10
240.7539480199649
 20
218.0346062662368
 30
0.0
 10
240.5932786206013
 20
217.9837455775758
 30
0.0
 11
241.3350636956941
 21
218.5675260207795
 31
0.0
 11
241.0384162296813
 21
218.1831230195505
 31
0.0
 11
240.5932786206013
 21
217.9837455775758
 31
0.0
  0
SPLINE
  5
1B4
330
84
100
AcDbEntity
  8
0
  6
Continuous
 62
     1
100
AcDbSpline
210
0.0
220
0.0
230
1.0
 70
     8
 71
     3
 72
    13
 73
     9
 74
     7
 42
0.000000001
 43
0.0000000001
 44
0.00000001
 40
0.0
 40
0.0
 40
0.0
 40
0.0
 40
0.0703311203258225
 40
0.1993073164611654
 40
0.3953246006977662
 40
0.6538687585810989
 40
0.8731399384537383
 40
1.11639973211919
 40
1.11639973211919
 40
1.11639973211919
 40
1.11639973211919
 10
389.4039949761778
 20
240.5930976088933
 30
0.0
 10
389.3925709492262
 20
240.5719931664654
 30
0.0
 10
389.360197068141
 20
240.5121864940274
 30
0.0
 10
389.2278320785047
 20
240.4650624807584
 30
0.0
 10
389.0492626692089
 20
240.3990889433467
 30
0.0
 10
388.8305849092339
 20
240.3404410209087
 30
0.0
 10
388.5984766803615
 20
240.2797440218172
 30
0.0
 10
388.4489005226804
 20
240.2421063330203
 30
0.0
 10
388.3702336515397
 20
240.2223114654802
 30
0.0
 11
389.4039949761778
 21
240.5930976088933
 31
0.0
 11
389.365444366807
 21
240.5342731428096
 31
0.0
 11
389.2517540412004
 21
240.4733685651022
 31
0.0
 11
389.0668314776667
 21
240.408357635084
 31
0.0
 11
388.818208538551
 21
240.3374230483332
 31
0.0
 11
388.6060430743626
 21
240.2820545908584
 31
0.0
 11
388.3702336515397
 21
240.2223114654802
 31
0.0
  0
SPLINE
  5
1B5
330
84
100
AcDbEntity
  8
0
  6
Continuous
 62
     1
100
AcDbSpline
210
0.0
220
0.0
230
1.0
 70
     8
 71
     3
 72
    16
 73
    12
 74
    10
 42
0.000000001
 43
0.0000000001
 44
0.00000001
 40
0.0
 40
0.0
 40
0.0
 40
0.0
 40
0.0136150807534041
 40
0.0506295862854471
 40
0.1105333186357836
 40
0.1923049503762189
 40
0.2948626099563091
 40
0.4472295568352028
 40
0.6193793382106327
 40
0.8060741829617788
 40
1.002073276252715
 40
1.002073276252715
 40
1.002073276252715
 40
1.002073276252715
 10
339.1533113755833
 20
242.5812016857568
 30
0.0
 10
339.1492070439062
 20
242.5792067000718
 30
0.0
 10
339.1339445204631
 20
242.5717880452131
 30
0.0
 10
339.0962423716729
 20
242.5704643094735
 30
0.0
 10
339.0374610457876
 20
242.5640666916771
 30
0.0
 10
338.9559077464853
 20
242.560361768351
 30
0.0
 10
338.8438657594542
 20
242.555607069121
 30
0.0
 10
338.7015150815015
 20
242.5517865014954
 30
0.0
 10
338.5311525848682
 20
242.548659135803
 30
0.0
 10
338.3462084827187
 20
242.5466805932102
 30
0.0
 10
338.2186442136202
 20
242.5464303564976
 30
0.0
 10
338.1533113755833
 20
242.5463021890543
 30
0.0
 11
339.1533113755833
 21
242.5812016857568
 31
0.0
 11
339.1408532540406
 21
242.5757093636365
 31
0.0
 11
339.1042212822028
 21
242.5704016102218
 31
0.0
 11
339.0445290492549
 21
242.5653722507895
 31
0.0
 11
338.9628901443822
 21
242.5607151106161
 31
0.0
 11
338.8604181567698
 21
242.5565240149784
 31
0.0
 11
338.7081135518934
 21
242.5521658246388
 31
0.0
 11
338.5359936444013
 21
242.5489588530929
 31
0.0
 11
338.3493092977968
 21
242.5469790060087
 31
0.0
 11
338.1533113755833
 21
242.5463021890543
 31
0.0
  0
SPLINE
  5
1B6
330
84
100
AcDbEntity
  8
0
  6
Continuous
 62
     1
100
AcDbSpline
210
0.0
220
0.0
230
1.0
 70
     8
 71
     3
 72
     9
 73
     5
 74
     3
 42
0.000000001
 43
0.0000000001
 44
0.00000001
 40
0.0
 40
0.0
 40
0.0
 40
0.0
 40
13.55554746596258
 40
27.10107207724248
 40
27.10107207724248
 40
27.10107207724248
 40
27.10107207724248
 10
241.3616256412591
 20
222.562661407028
 30
0.0
 10
237.0267978115586
 20
221.257321176468
 30
0.0
 10
228.3603472931981
 20
218.6476058538829
 30
0.0
 10
220.2415749375126
 20
214.6472010380308
 30
0.0
 10
216.1836900561337
 20
212.6477383606013
 30
0.0
 11
241.3616256412591
 21
222.562661407028
 31
0.0
 11
228.4941629892523
 21
218.2987111240011
 31
0.0
 11
216.1836900561337
 21
212.6477383606013
 31
0.0
  0
SPLINE
  5
1B7
330
84
100
AcDbEntity
  8
0
  6
Continuous
 62
     1
100
AcDbSpline
210
0.0
220
0.0
230
1.0
 70
     8
 71
     3
 72
     9
 73
     5
 74
     3
 42
0.000000001
 43
0.0000000001
 44
0.00000001
 40
0.0
 40
0.0
 40
0.0
 40
0.0
 40
13.55554746596255
 40
27.10107207724245
 40
27.10107207724245
 40
27.10107207724245
 40
27.10107207724245
 10
241.3616256412591
 20
222.701834507988
 30
0.0
 10
237.0267978115585
 20
221.396494277428
 30
0.0
 10
228.3603472931981
 20
218.7867789548429
 30
0.0
 10
220.2415749375126
 20
214.7863741389909
 30
0.0
 10
216.1836900561337
 20
212.7869114615614
 30
0.0
 11
241.3616256412591
 21
222.701834507988
 31
0.0
 11
228.4941629892523
 21
218.4378842249612
 31
0.0
 11
216.1836900561337
 21
212.7869114615614
 31
0.0
  0
SPLINE
  5
1B8
330
84
100
AcDbEntity
  8
0
  6
Continuous
 62
     1
100
AcDbSpline
210
0.0
220
0.0
230
1.0
 70
     8
 71
     3
 72
     9
 73
     5
 74
     3
 42
0.000000001
 43
0.0000000001
 44
0.00000001
 40
0.0
 40
0.0
 40
0.0
 40
0.0
 40
12.2953348481205
 40
24.59805929635326
 40
24.59805929635326
 40
24.59805929635326
 40
24.59805929635326
 10
217.0469658953819
 20
211.0023941171198
 30
0.0
 10
220.8723216638058
 20
212.4956082829639
 30
0.0
 10
228.5253322779903
 20
215.4829340300245
 30
0.0
 10
236.5698242788185
 20
217.1499748007185
 30
0.0
 10
240.5932786206013
 20
217.9837455775758
 30
0.0
 11
217.0469658953819
 21
211.0023941171198
 31
0.0
 11
228.620844756272
 21
215.1521636474207
 31
0.0
 11
240.5932786206013
 21
217.9837455775758
 31
0.0
  0
SPLINE
  5
1B9
330
84
100
AcDbEntity
  8
0
  6
Continuous
 62
     1
100
AcDbSpline
210
0.0
220
0.0
230
1.0
 70
     8
 71
     3
 72
    11
 73
     7
 74
     5
 42
0.000000001
 43
0.0000000001
 44
0.00000001
 40
0.0
 40
0.0
 40
0.0
 40
0.0
 40
0.321444475387499
 40
0.6088167519287826
 40
0.8316786448180389
 40
0.9665339632540807
 40
0.9665339632540807
 40
0.9665339632540807
 40
0.9665339632540807
 10
328.9924351332868
 20
242.5463021890543
 30
0.0
 10
328.8852822645285
 20
242.5465846317947
 30
0.0
 10
328.6823344260521
 20
242.5471195699356
 30
0.0
 10
328.4051914186106
 20
242.5527743163245
 30
0.0
 10
328.1901435926786
 20
242.5583605209694
 30
0.0
 10
328.0713087064017
 20
242.5683885646572
 30
0.0
 10
328.0265093069977
 20
242.5721690313457
 30
0.0
 11
328.9924351332868
 21
242.5463021890543
 31
0.0
 11
328.6709959950702
 21
242.548154334453
 31
0.0
 11
328.3836737042781
 21
242.5535140534734
 31
0.0
 11
328.1609663670611
 21
242.5618125839713
 31
0.0
 11
328.0265093069977
 21
242.5721690313457
 31
0.0
  0
SPLINE
  5
1BA
330
84
100
AcDbEntity
  8
0
  6
Continuous
 62
     1
100
AcDbSpline
210
0.0
220
0.0
230
1.0
 70
     8
 71
     3
 72
    11
 73
     7
 74
     5
 42
0.000000001
 43
0.0000000001
 44
0.00000001
 40
0.0
 40
0.0
 40
0.0
 40
0.0
 40
0.102188366721841
 40
0.2071954077698107
 40
0.5948167379573318
 40
0.999580907576733
 40
0.999580907576733
 40
0.999580907576733
 40
0.999580907576733
 10
388.3702336515397
 20
240.2223114654802
 30
0.0
 10
388.3372050665716
 20
240.2139814683154
 30
0.0
 10
388.2702368686769
 20
240.1970916924844
 30
0.0
 10
388.078038812271
 20
240.1483950127772
 30
0.0
 10
387.7882439239261
 20
240.0741732646981
 30
0.0
 10
387.53391206878
 20
240.002874408678
 30
0.0
 10
387.4039949761778
 20
239.9664537159027
 30
0.0
 11
388.3702336515397
 21
240.2223114654802
 31
0.0
 11
388.2711524984105
 21
240.1973037188349
 31
0.0
 11
388.1693618409081
 21
240.1715133966165
 31
0.0
 11
387.7941515179632
 21
240.0742122699165
 31
0.0
 11
387.4039949761778
 21
239.9664537159027
 31
0.0
  0
SPLINE
  5
1BB
330
84
100
AcDbEntity
  8
0
  6
Continuous
 62
     1
100
AcDbSpline
210
0.0
220
0.0
230
1.0
 70
     8
 71
     3
 72
    11
 73
     7
 74
     5
 42
0.000000001
 43
0.0000000001
 44
0.00000001
 40
0.0
 40
0.0
 40
0.0
 40
0.0
 40
0.2503990587738592
 40
0.5167354524505394
 40
0.7646550566178623
 40
0.999624799778821
 40
0.999624799778821
 40
0.999624799778821
 40
0.999624799778821
 10
198.1039949761778
 20
239.9664537159026
 30
0.0
 10
198.0236870151428
 20
239.9892017419352
 30
0.0
 10
197.8579596684812
 20
240.0361456397122
 30
0.0
 10
197.6115948025052
 20
240.1015337597815
 30
0.0
 10
197.3697397340314
 20
240.1638006624975
 30
0.0
 10
197.2136640765196
 20
240.2031657989255
 30
0.0
 10
197.1377190215252
 20
240.2223205236647
 30
0.0
 11
198.1039949761778
 21
239.9664537159026
 31
0.0
 11
197.8628926098394
 21
240.0340505917645
 31
0.0
 11
197.6055761395492
 21
240.1027769243038
 31
0.0
 11
197.3655078363588
 21
240.1646747431635
 31
0.0
 11
197.1377190215252
 21
240.2223205236647
 31
0.0
  0
SPLINE
  5
1BC
330
84
100
AcDbEntity
  8
0
  6
Continuous
 62
     1
100
AcDbSpline
210
0.0
220
0.0
230
1.0
 70
     8
 71
     3
 72
    14
 73
    10
 74
     8
 42
0.000000001
 43
0.0000000001
 44
0.00000001
 40
0.0
 40
0.0
 40
0.0
 40
0.0
 40
0.0127700993792262
 40
0.0258601130485199
 40
0.1085869564210942
 40
0.2030047649813176
 40
0.3090307252355243
 40
0.4379973686508095
 40
0.5786191791048871
 40
0.5786191791048871
 40
0.5786191791048871
 40
0.5786191791048871
 10
388.344149087947
 20
240.440203071041
 30
0.0
 10
388.3415352128312
 20
240.436843073291
 30
0.0
 10
388.3362419664179
 20
240.4300389147409
 30
0.0
 10
388.3130273452749
 20
240.4022602661768
 30
0.0
 10
388.2680631472376
 20
240.3572766544046
 30
0.0
 10
388.194924332118
 20
240.29747040635
 30
0.0
 10
388.1052914887053
 20
240.2339397728914
 30
0.0
 10
387.9996952751319
 20
240.1665912588436
 30
0.0
 10
387.9221962485829
 20
240.1210935833107
 30
0.0
 10
387.8817714738988
 20
240.0973612353859
 30
0.0
 11
388.344149087947
 21
240.440203071041
 31
0.0
 11
388.3362500655999
 21
240.4301690809809
 31
0.0
 11
388.3278745086891
 21
240.4201093251339
 31
0.0
 11
388.2699794486192
 21
240.3610170951017
 31
0.0
 11
388.1973080954707
 21
240.3007377712433
 31
0.0
 11
388.1111017573644
 21
240.2390128048856
 31
0.0
 11
388.0025805823883
 21
240.1693310298461
 31
0.0
 11
387.8817714738988
 21
240.0973612353859
 31
0.0
  0
ENDBLK
  5
86
330
84
100
AcDbEntity
  8
0
100
AcDbBlockEnd
  0
BLOCK
  5
89
330
87
100
AcDbEntity
  8
0
100
AcDbBlockBegin
  2
VordansA
 70
     0
 10
292.7539949999998
 20
197.9999999999997
 30
0.0
  3
VordansA
  1
VordansA
  0
INSERT
  5
88
330
87
100
AcDbEntity
  8
0
100
AcDbBlockReference
  2
70710-2-0511__3
 10
196.1039949761777
 20
153.2779985640897
 30
0.0
  0
MTEXT
  5
1BD
330
87
100
AcDbEntity
  8
1
 62
     1
100
AcDbMText
 10
292.7529941792955
 20
247.732139376475
 30
0.0
 40
3.5
 41
0.0
 71
     8
 72
     1
  1
 
  7
CONVERTER_11
 73
     1
 44
1.02040816326531
  0
DIMENSION
  5
1C8
330
87
100
AcDbEntity
  8
1
100
AcDbDimension
  2
*D15
 10
196.1039949761777
 20
252.677386815324
 30
0.0
 11
289.317289496477
 21
256.427386815324
 31
0.0
 70
    32
  1
<>
 71
     5
 42
-1.0
 53
0.00013888888889
  3
ME10_DIM_13
100
AcDbAlignedDimension
 13
389.403994976178
 23
242.6859001758643
 33
0.0
 14
196.1039949761777
 24
242.5463021890543
 34
0.0
100
AcDbRotatedDimension
  0
ENDBLK
  5
8A
330
87
100
AcDbEntity
  8
0
100
AcDbBlockEnd
  0
BLOCK
  5
8C
330
8B
100
AcDbEntity
  8
0
100
AcDbBlockBegin
  2
GEZE-Logo
 70
     0
 10
299.0
 20
64.0
 30
0.0
  3
GEZE-Logo
  1
GEZE-Logo
  0
SPLINE
  5
1EB
330
8B
100
AcDbEntity
  8
GEZE_Logo
  6
Continuous
 62
     7
100
AcDbSpline
210
0.0
220
0.0
230
1.0
 70
    11
 71
     3
 72
   231
 73
   227
 74
   225
 42
0.000000001
 43
0.0000000001
 44
0.00000001
 40
0.0
 40
0.0
 40
0.0
 40
0.0
 40
0.0407036847756388
 40
0.0719773390958921
 40
0.1089306758128477
 40
0.1208926093828355
 40
0.1444644767912682
 40
0.1856605580591623
 40
0.2514220049486284
 40
0.2699645769558487
 40
0.3223674977625905
 40
0.4037935745770568
 40
0.5094056146948192
 40
0.6343664254527739
 40
0.773838814193502
 40
0.9229855882563442
 40
1.07696955497706
 40
1.230953521689193
 40
1.380100295724466
 40
1.519572684413808
 40
1.644533495087521
 40
1.750145535075339
 40
1.831571611706713
 40
1.883974532310865
 40
1.90251710421696
 40
1.972835872175935
 40
2.034381922760972
 40
2.090218997963972
 40
2.1597827065553
 40
2.177074725399609
 40
2.225943474314326
 40
2.301877991877699
 40
2.40036731666943
 40
2.516900487264832
 40
2.646966542231642
 40
2.786054520129613
 40
2.929653459511815
 40
3.073252398926603
 40
3.212340376919474
 40
3.342406432034605
 40
3.458939602815781
 40
3.557428927807056
 40
3.633363445553125
 40
3.6822321945996
 40
3.69952421349332
 40
3.768849847946136
 40
3.824607681540519
 40
3.886143444126328
 40
3.956461870663929
 40
3.974905918603108
 40
4.027694055808039
 40
4.111010272358187
 40
4.221038558332794
 40
4.353962903810759
 40
4.505967298871206
 40
4.673235733593605
 40
4.85195219805833
 40
5.038300682346557
 40
5.228465176540764
 40
5.418629670724739
 40
5.604978154982781
 40
5.78369461940061
 40
5.950963054064175
 40
6.102967449059422
 40
6.235891794472072
 40
6.345920080387276
 40
6.429236296889504
 40
6.482024434062716
 40
6.500468481990867
 40
6.518774768316109
 40
6.568463259770435
 40
6.641688405071792
 40
6.730604652938115
 40
6.827366452087186
 40
6.924128251236655
 40
7.013044499104093
 40
7.0862696444069
 40
7.135958135862484
 40
7.154264422188244
 40
7.172432101667364
 40
7.224552493614165
 40
7.307051628293034
 40
7.416355535966598
 40
7.548890246897368
 40
7.70108179134797
 40
7.869356199581996
 40
8.050139501864177
 40
8.239857728461228
 40
8.434936909641745
 40
8.631803075676654
 40
8.826882256838584
 40
9.016600483401074
 40
9.197383785637381
 40
9.365658193820078
 40
9.51784973821918
 40
9.650384449102997
 40
9.759688356737396
 40
9.84218749138699
 40
9.894307883315886
 40
9.912475562788583
 40
10.11764295585483
 40
10.29528844938248
 40
10.45353260011919
 40
10.59887168443804
 40
10.73544477892671
 40
10.86483844621072
 40
10.98640268334034
 40
11.09779466188222
 40
11.19552816176644
 40
11.21282502992531
 40
11.26170748341396
 40
11.33766329574664
 40
11.43618024043502
 40
11.5527460909913
 40
11.68284862093133
 40
11.82197560377752
 40
11.96561481306035
 40
12.10925402231811
 40
12.24838100509394
 40
12.37848353493152
 40
12.49504938537079
 40
12.59356632994553
 40
12.66952214218351
 40
12.71840459560871
 40
12.73570146374473
 40
12.83343518071875
 40
12.94482773062601
 40
13.06639276356106
 40
13.1957873116682
 40
13.33236123113496
 40
13.47770096238197
 40
13.63594551180141
 40
13.81359116734528
 40
14.01875857931601
 40
14.03678080529881
 40
14.08807483309335
 40
14.16848168746629
 40
14.2738423931823
 40
14.39999797500566
 40
14.54278945770285
 40
14.69805786604338
 40
14.86164422480153
 40
15.02938955875664
 40
15.19713489269192
 40
15.36072125139311
 40
15.51598965964667
 40
15.65878114223728
 40
15.78493672394724
 40
15.89029742955558
 40
15.97070428383934
 40
16.02199831157402
 40
16.04002053753528
 40
16.20033489776344
 40
16.33757037928515
 40
16.45751826704642
 40
16.56524488961379
 40
16.66458860771973
 40
16.76828036630341
 40
16.88419831967468
 40
17.01233815770026
 40
17.15531951144636
 40
17.31843353959779
 40
17.3368535323517
 40
17.38813080947627
 40
17.46629131926439
 40
17.56536101000754
 40
17.67936582999625
 40
17.80233172752048
 40
17.92828465087061
 40
18.05125054833901
 40
18.16525536822277
 40
18.26432505882747
 40
18.3424855684703
 40
18.39376284547976
 40
18.41218283818812
 40
18.42978484051342
 40
18.4798828471214
 40
18.55841485744757
 40
18.6613188709121
 40
18.7845328869236
 40
18.92399490488576
 40
19.0756429242159
 40
19.23541494437971
 40
19.39924896492748
 40
19.56308298549031
 40
19.72285500570756
 40
19.87450302513916
 40
20.01396504324298
 40
20.13717905941409
 40
20.24008307303113
 40
20.3186150834819
 40
20.36871309017219
 40
20.38631509252677
 40
20.4037126430763
 40
20.45093456600128
 40
20.5205247682191
 40
20.60502715664565
 40
20.69698563819124
 40
20.78894411975875
 40
20.87344650824413
 40
20.94303671053824
 40
20.99025863352936
 40
21.00765618410617
 40
21.02462290120798
 40
21.07212970909308
 40
21.14508659263164
 40
21.23840353669392
 40
21.34699052615111
 40
21.46575754587503
 40
21.58961458073953
 40
21.71347161562182
 40
21.83223863540713
 40
21.940825625002
 40
22.03414256938107
 40
22.10709945378381
 40
22.15460626007013
 40
22.17157296953093
 40
22.18775849960157
 40
22.23113572019088
 40
22.29393557686497
 40
22.3683890151899
 40
22.44672698073179
 40
22.52118041905673
 40
22.58398027573082
 40
22.62735749632015
 40
22.6435430163908
 40
22.6435430163908
 40
22.6435430163908
 40
22.6435430163908
 10
305.3655801509662
 20
58.40287137879391
 30
0.0
 10
305.3654402334276
 20
58.38915921888994
 30
0.0
 10
305.3651928271352
 20
58.36491166397084
 30
0.0
 10
305.3495001446138
 20
58.33104236979965
 30
0.0
 10
305.3301553172093
 20
58.31214809043342
 30
0.0
 10
305.3111541329509
 20
58.29707116946666
 30
0.0
 10
305.2866808546481
 20
58.28824445070229
 30
0.0
 10
305.2437889284498
 20
58.28083322589671
 30
0.0
 10
305.2018213258959
 20
58.27956759644557
 30
0.0
 10
305.1562657038837
 20
58.27969353962722
 30
0.0
 10
305.1054688571775
 20
58.2796339189598
 30
0.0
 10
305.0256584946836
 20
58.27966519046074
 30
0.0
 10
304.9216575281434
 20
58.27965270737936
 30
0.0
 10
304.7983095747096
 20
58.27965704227896
 30
0.0
 10
304.6604494372842
 20
58.27965566338107
 30
0.0
 10
304.5129151048095
 20
58.27965607903105
 30
0.0
 10
304.3605435213566
 20
58.27965594258995
 30
0.0
 10
304.2081719629197
 20
58.27965605033257
 30
0.0
 10
304.0606375593574
 20
58.27965577160555
 30
0.0
 10
303.9227776565074
 20
58.2796566827236
 30
0.0
 10
303.799428966214
 20
58.27965382186041
 30
0.0
 10
303.6954301218708
 20
58.27966205963155
 30
0.0
 10
303.6156144434864
 20
58.27964142313733
 30
0.0
 10
303.5648277321868
 20
58.27968076737412
 30
0.0
 10
303.5177313249217
 20
58.27959488521702
 30
0.0
 10
303.4676982244405
 20
58.28065489928088
 30
0.0
 10
303.4051224566817
 20
58.29297158196359
 30
0.0
 10
303.3545702861431
 20
58.3359353094131
 30
0.0
 10
303.3462982624785
 20
58.3860140772053
 30
0.0
 10
303.346944084855
 20
58.43105949995205
 30
0.0
 10
303.3466580268001
 20
58.47851177915588
 30
0.0
 10
303.3468097052201
 20
58.55289691379424
 30
0.0
 10
303.3467512479476
 20
58.64990083864632
 30
0.0
 10
303.3467740017214
 20
58.76492401744188
 30
0.0
 10
303.3467694849411
 20
58.89348843022418
 30
0.0
 10
303.3467737672423
 20
59.03107216602001
 30
0.0
 10
303.3467754021555
 20
59.17316757516302
 30
0.0
 10
303.346778457864
 20
59.31526298557347
 30
0.0
 10
303.3467786996591
 20
59.45284671794673
 30
0.0
 10
303.3467875075667
 20
59.58141114246176
 30
0.0
 10
303.3467683908411
 20
59.69643428501617
 30
0.0
 10
303.3468305014734
 20
59.79343831492727
 30
0.0
 10
303.3466801412137
 20
59.86782318702407
 30
0.0
 10
303.3469699298902
 20
59.9152759672198
 30
0.0
 10
303.3463218628277
 20
59.9602412514681
 30
0.0
 10
303.3546147837595
 20
60.0102155857944
 30
0.0
 10
303.4051640622699
 20
60.05300372010605
 30
0.0
 10
303.4676993002312
 20
60.06529234797566
 30
0.0
 10
303.5176987890042
 20
60.06635949977797
 30
0.0
 10
303.5648903965089
 20
60.06627280023208
 30
0.0
 10
303.6164027795945
 20
60.06631236207377
 30
0.0
 10
303.6984489976262
 20
60.0662901221686
 30
0.0
 10
303.8072044603229
 20
60.06629779784712
 30
0.0
 10
303.9388570954149
 20
60.06629335073228
 30
0.0
 10
304.0895893919527
 20
60.06629287527733
 30
0.0
 10
304.2555858478451
 20
60.06629090322508
 30
0.0
 10
304.4330303225745
 20
60.06628920402861
 30
0.0
 10
304.6181067170542
 20
60.06628741792547
 30
0.0
 10
304.8069995487865
 20
60.06628519787542
 30
0.0
 10
304.9958907688705
 20
60.0662845808306
 30
0.0
 10
305.1809718371858
 20
60.06627814602507
 30
0.0
 10
305.3584002696206
 20
60.06629240303121
 30
0.0
 10
305.5244506819833
 20
60.06623676432527
 30
0.0
 10
305.6750092039875
 20
60.06640913032153
 30
0.0
 10
305.8071899318608
 20
60.06587942635649
 30
0.0
 10
305.9144684641179
 20
60.06735610147813
 30
0.0
 10
306.0001255030278
 20
60.06374243077763
 30
0.0
 10
306.0448823547739
 20
60.07050124697648
 30
0.0
 10
306.0839279620708
 20
60.06130143296744
 30
0.0
 10
306.0750673211257
 20
60.09897499793611
 30
0.0
 10
306.0811740255278
 20
60.13994290543052
 30
0.0
 10
306.0781679470619
 20
60.21354999970868
 30
0.0
 10
306.0792849694247
 20
60.29877816152354
 30
0.0
 10
306.0788549430613
 20
60.39317018480787
 30
0.0
 10
306.0792868198654
 20
60.48756543198596
 30
0.0
 10
306.0781617292515
 20
60.57278520732231
 30
0.0
 10
306.0811903432364
 20
60.6464148739812
 30
0.0
 10
306.0750377327763
 20
60.68733692629694
 30
0.0
 10
306.0839364532226
 20
60.724956360411
 30
0.0
 10
306.0453735897116
 20
60.71592497477801
 30
0.0
 10
306.0010774460802
 20
60.72255788124406
 30
0.0
 10
305.9162120709962
 20
60.71900032753324
 30
0.0
 10
305.8095610292123
 20
60.72046186604915
 30
0.0
 10
305.6776923527376
 20
60.71993657869981
 30
0.0
 10
305.5268660151239
 20
60.72011046177595
 30
0.0
 10
305.3597285714721
 20
60.72005610326398
 30
0.0
 10
305.1801528631162
 20
60.72007237386091
 30
0.0
 10
304.99162125911
 20
60.72006767343644
 30
0.0
 10
304.797734718096
 20
60.72006898970573
 30
0.0
 10
304.6020595167302
 20
60.72006863391459
 30
0.0
 10
304.4081717534069
 20
60.72006871877235
 30
0.0
 10
304.219644827243
 20
60.72006873129901
 30
0.0
 10
304.0400528486608
 20
60.72006861000422
 30
0.0
 10
303.8729697813203
 20
60.72006903500792
 30
0.0
 10
303.7219694994857
 20
60.72006767193143
 30
0.0
 10
303.5906262961115
 20
60.72007179141808
 30
0.0
 10
303.4825131988382
 20
60.72006033001331
 30
0.0
 10
303.4012066358869
 20
60.72008822895879
 30
0.0
 10
303.3502752395112
 20
60.72003621288881
 30
0.0
 10
303.2584666055564
 20
60.7202564215383
 30
0.0
 10
303.1243567315761
 20
60.71020745664649
 30
0.0
 10
302.9495312499865
 20
60.66093491642751
 30
0.0
 10
302.8067129580526
 20
60.58520155189373
 30
0.0
 10
302.6938967801631
 20
60.48973965671661
 30
0.0
 10
302.6083164183676
 20
60.38160250159228
 30
0.0
 10
302.5467941579741
 20
60.26735590259669
 30
0.0
 10
302.5062882776193
 20
60.15313826145916
 30
0.0
 10
302.4835944895949
 20
60.04493774842405
 30
0.0
 10
302.4781731152337
 20
59.96941717585552
 30
0.0
 10
302.4784113397167
 20
59.91478161007929
 30
0.0
 10
302.4783236032057
 20
59.86740248025025
 30
0.0
 10
302.4783696222959
 20
59.79295113776049
 30
0.0
 10
302.4783512526403
 20
59.69593811115494
 30
0.0
 10
302.4783576322907
 20
59.58087639074918
 30
0.0
 10
302.4783556023425
 20
59.45227791895403
 30
0.0
 10
302.4783562181495
 20
59.31465501667121
 30
0.0
 10
302.4783560018235
 20
59.17251988180752
 30
0.0
 10
302.4783562183877
 20
59.0303847469673
 30
0.0
 10
302.4783556028021
 20
58.89276184475021
 30
0.0
 10
302.4783576329374
 20
58.76416337305254
 30
0.0
 10
302.4783512534455
 20
58.64910165275506
 30
0.0
 10
302.478369623191
 20
58.55208862626583
 30
0.0
 10
302.4783236042312
 20
58.47763728384698
 30
0.0
 10
302.4784113406816
 20
58.43025815411585
 30
0.0
 10
302.4781731162126
 20
58.37562251590576
 30
0.0
 10
302.4835945139441
 20
58.30010168259415
 30
0.0
 10
302.5062883026145
 20
58.19190063511526
 30
0.0
 10
302.5467941675756
 20
58.07768219838827
 30
0.0
 10
302.6083163931086
 20
57.96343464364269
 30
0.0
 10
302.6938967035572
 20
57.85529643911948
 30
0.0
 10
302.8067128323182
 20
57.75983356990552
 30
0.0
 10
302.9495311309289
 20
57.68409907718361
 30
0.0
 10
303.1243566186293
 20
57.63482692310146
 30
0.0
 10
303.2584180521218
 20
57.6247784303512
 30
0.0
 10
303.3499028515967
 20
57.62499643723543
 30
0.0
 10
303.3998128173158
 20
57.62494586735033
 30
0.0
 10
303.4788321469547
 20
57.62497267555806
 30
0.0
 10
303.5828070131379
 20
57.62496182558304
 30
0.0
 10
303.7075760984334
 20
57.62496565721528
 30
0.0
 10
303.8489813116445
 20
57.62496441507039
 30
0.0
 10
304.0028633779609
 20
57.62496479498296
 30
0.0
 10
304.1650634165165
 20
57.62496468305957
 30
0.0
 10
304.3314224242701
 20
57.62496472161997
 30
0.0
 10
304.4977814325781
 20
57.62496468576852
 30
0.0
 10
304.6599814694297
 20
57.624964787669
 30
0.0
 10
304.8138635412319
 20
57.62496444504905
 30
0.0
 10
304.9552687361134
 20
57.62496556675244
 30
0.0
 10
305.0800378775066
 20
57.62496210820476
 30
0.0
 10
305.1840125844105
 20
57.62497190287144
 30
0.0
 10
305.263032307245
 20
57.62494770294819
 30
0.0
 10
305.3129415310308
 20
57.62499335313989
 30
0.0
 10
305.3894795830131
 20
57.62482871418983
 30
0.0
 10
305.4948588965572
 20
57.63048947793234
 30
0.0
 10
305.6317564733235
 20
57.65843975600346
 30
0.0
 10
305.7460273624146
 20
57.70166547008547
 30
0.0
 10
305.8407541848184
 20
57.75657079433397
 30
0.0
 10
305.9216619004064
 20
57.82171521024772
 30
0.0
 10
305.9964244397228
 20
57.89762703860531
 30
0.0
 10
306.0663727242287
 20
57.99062091602681
 30
0.0
 10
306.1258258571985
 20
58.10590907579922
 30
0.0
 10
306.1669997954383
 20
58.24566093572466
 30
0.0
 10
306.1760112505852
 20
58.35421094169651
 30
0.0
 10
306.1757511770091
 20
58.43180379439355
 30
0.0
 10
306.1758211317238
 20
58.48109264383878
 30
0.0
 10
306.1757853759376
 20
58.55726039436138
 30
0.0
 10
306.1757987403677
 20
58.65433881115329
 30
0.0
 10
306.1757964185156
 20
58.76635439543433
 30
0.0
 10
306.1757882358078
 20
58.88731941755507
 30
0.0
 10
306.1758246606936
 20
59.01131779109583
 30
0.0
 10
306.175693182165
 20
59.13216076199794
 30
0.0
 10
306.1761280322872
 20
59.24460910531377
 30
0.0
 10
306.1748255295582
 20
59.34038493777777
 30
0.0
 10
306.1781922751407
 20
59.419920843694
 30
0.0
 10
306.1716216999144
 20
59.46263619496042
 30
0.0
 10
306.1807798356414
 20
59.5008940881642
 30
0.0
 10
306.1434585660491
 20
59.49227948587431
 30
0.0
 10
306.1009350498753
 20
59.49849997632849
 30
0.0
 10
306.0204594529775
 20
59.49520238956024
 30
0.0
 10
305.9202440971998
 20
59.49653704887325
 30
0.0
 10
305.7979128042173
 20
59.49606576493338
 30
0.0
 10
305.6599575880755
 20
59.49621859904106
 30
0.0
 10
305.5096170029919
 20
59.49617189824249
 30
0.0
 10
305.351212278195
 20
59.49618573720782
 30
0.0
 10
305.1887295182684
 20
59.49618089849209
 30
0.0
 10
305.0262466141612
 20
59.49618581954385
 30
0.0
 10
304.8678423040143
 20
59.49617158104586
 30
0.0
 10
304.7175003186026
 20
59.49621967737011
 30
0.0
 10
304.5795496848834
 20
59.49606226155157
 30
0.0
 10
304.4572042607477
 20
59.49654767447035
 30
0.0
 10
304.3570289232818
 20
59.4951730003466
 30
0.0
 10
304.2764544513066
 20
59.49856945214703
 30
0.0
 10
304.2341174504393
 20
59.49216246446922
 30
0.0
 10
304.1969840360746
 20
59.50093000044567
 30
0.0
 10
304.2053960324872
 20
59.46511094749138
 30
0.0
 10
304.1996037089077
 20
59.42616540281209
 30
0.0
 10
304.202455075465
 20
59.35621780898438
 30
0.0
 10
304.2013953214561
 20
59.27521820255797
 30
0.0
 10
304.2018042071608
 20
59.18551331315408
 30
0.0
 10
304.201390884748
 20
59.09580068389625
 30
0.0
 10
304.2024699829581
 20
59.01482121144679
 30
0.0
 10
304.19956458551
 20
58.94481942640286
 30
0.0
 10
304.2054669726776
 20
58.90598396952618
 30
0.0
 10
304.1969613311372
 20
58.87028303098052
 30
0.0
 10
304.232550109005
 20
58.87858142712737
 30
0.0
 10
304.272453509834
 20
58.87267470832805
 30
0.0
 10
304.3467680144308
 20
58.87572899258783
 30
0.0
 10
304.4371920817954
 20
58.87453279098974
 30
0.0
 10
304.5444875613476
 20
58.87493795170462
 30
0.0
 10
304.6614351954094
 20
58.87481523814874
 30
0.0
 10
304.7836214771929
 20
58.87484115669417
 30
0.0
 10
304.9058094453033
 20
58.87486876171883
 30
0.0
 10
305.0227523641325
 20
58.87474133224248
 30
0.0
 10
305.1300628462072
 20
58.87516149688126
 30
0.0
 10
305.2204427400268
 20
58.87392111586888
 30
0.0
 10
305.2948700125878
 20
58.87708818036369
 30
0.0
 10
305.3345553306248
 20
58.87096335328766
 30
0.0
 10
305.3699190932474
 20
58.87944076023033
 30
0.0
 10
305.362212641793
 20
58.84622449027729
 30
0.0
 10
305.3673992694667
 20
58.81062358113523
 30
0.0
 10
305.3649051625295
 20
58.74791930283401
 30
0.0
 10
305.365785469459
 20
58.67693585607374
 30
0.0
 10
305.365526678384
 20
58.60092878431939
 30
0.0
 10
305.3655919268119
 20
58.52913027921907
 30
0.0
 10
305.3655781534969
 20
58.46890633404409
 30
0.0
 10
305.3655802821965
 20
58.42812093028836
 30
0.0
 10
305.3655801790112
 20
58.40826658019585
 30
0.0
 10
305.3655801509662
 20
58.40287137879391
 30
0.0
 11
305.3655801509662
 21
58.40287137879391
 31
0.0
 11
305.3619234920412
 21
58.36233227694381
 31
0.0
 11
305.3489252784144
 21
58.33388780732155
 31
0.0
 11
305.3235431548085
 21
58.30703083755419
 31
0.0
 11
305.3139686455274
 21
58.29986029914708
 31
0.0
 11
305.2922194014216
 21
58.2907716640403
 31
0.0
 11
305.2517690121502
 21
58.28296890381597
 31
0.0
 11
305.1860910673723
 21
58.27965599005628
 31
0.0
 11
305.1675484954587
 21
58.27965599005628
 31
0.0
 11
305.1151455748336
 21
58.27965599005627
 31
0.0
 11
305.0337194981698
 21
58.27965599005628
 31
0.0
 11
304.9281074581406
 21
58.27965599005627
 31
0.0
 11
304.8031466474191
 21
58.27965599005627
 31
0.0
 11
304.6636742586782
 21
58.27965599005628
 31
0.0
 11
304.5145274845912
 21
58.27965599005627
 31
0.0
 11
304.360543517831
 21
58.27965599005628
 31
0.0
 11
304.2065595510709
 21
58.27965599005627
 31
0.0
 11
304.0574127769839
 21
58.27965599005628
 31
0.0
 11
303.917940388243
 21
58.27965599005627
 31
0.0
 11
303.7929795775215
 21
58.27965599005627
 31
0.0
 11
303.6873675374923
 21
58.27965599005628
 31
0.0
 11
303.6059414608285
 21
58.27965599005627
 31
0.0
 11
303.5535385402034
 21
58.27965599005628
 31
0.0
 11
303.5349959682898
 21
58.27965599005628
 31
0.0
 11
303.4647526715854
 21
58.28291304366482
 31
0.0
 11
303.4052511926491
 21
58.29864486957062
 31
0.0
 11
303.3635638433345
 21
58.33579246539394
 31
0.0
 11
303.3467629354952
 21
58.40329682875502
 31
0.0
 11
303.3467632207491
 21
58.42058884765784
 31
0.0
 11
303.3467640269014
 21
58.46945759673106
 31
0.0
 11
303.3467652795379
 21
58.54539211452175
 31
0.0
 11
303.3467669042448
 21
58.64388143957698
 31
0.0
 11
303.3467688266079
 21
58.76041461044387
 31
0.0
 11
303.3467709722132
 21
58.89048066566951
 31
0.0
 11
303.3467732666466
 21
59.02956864380096
 31
0.0
 11
303.346775635494
 21
59.17316758338532
 31
0.0
 11
303.3467780043414
 21
59.31676652296969
 31
0.0
 11
303.3467802987748
 21
59.45585450110114
 31
0.0
 11
303.3467824443802
 21
59.58592055632677
 31
0.0
 11
303.3467843667432
 21
59.70245372719366
 31
0.0
 11
303.3467859914501
 21
59.80094305224891
 31
0.0
 11
303.3467872440867
 21
59.8768775700396
 31
0.0
 11
303.346788050239
 21
59.9257463191128
 31
0.0
 11
303.3467883354929
 21
59.94303833801563
 31
0.0
 11
303.3635745589585
 21
60.01030100452377
 31
0.0
 11
303.4052543676488
 21
60.04733787223218
 31
0.0
 11
303.4647530684604
 21
60.06303993251568
 31
0.0
 11
303.5349959682898
 21
60.06629817674911
 31
0.0
 11
303.5534400162664
 21
60.06629799259912
 31
0.0
 11
303.6062281535789
 21
60.06629746554918
 31
0.0
 11
303.689544370301
 21
60.06629663369925
 31
0.0
 11
303.7995726565063
 21
60.06629553514935
 31
0.0
 11
303.9324970022689
 21
60.06629420799947
 31
0.0
 11
304.0845013976625
 21
60.06629269034961
 31
0.0
 11
304.2517698327609
 21
60.06629102029976
 31
0.0
 11
304.430486297638
 21
60.06628923594992
 31
0.0
 11
304.6168347823673
 21
60.0662873754001
 31
0.0
 11
304.8069992770229
 21
60.06628547675028
 31
0.0
 11
304.9971637716786
 21
60.06628357810045
 31
0.0
 11
305.183512256408
 21
60.06628171755062
 31
0.0
 11
305.362228721285
 21
60.06627993320079
 31
0.0
 11
305.5294971563834
 21
60.06627826315094
 31
0.0
 11
305.681501551777
 21
60.06627674550109
 31
0.0
 11
305.8144258975396
 21
60.0662754183512
 31
0.0
 11
305.924454183745
 21
60.06627431980131
 31
0.0
 11
306.0077704004671
 21
60.06627348795138
 31
0.0
 11
306.0605585377794
 21
60.06627296090143
 31
0.0
 11
306.0790025857561
 21
60.06627277675145
 31
0.0
 11
306.0790025857561
 21
60.08457906307817
 31
0.0
 11
306.0790025857561
 21
60.13426755453642
 31
0.0
 11
306.0790025857561
 21
60.20749269984331
 31
0.0
 11
306.0790025857561
 21
60.29640894771597
 31
0.0
 11
306.079002585756
 21
60.3931707468715
 31
0.0
 11
306.0790025857561
 21
60.48993254602702
 31
0.0
 11
306.079002585756
 21
60.57884879389968
 31
0.0
 11
306.0790025857561
 21
60.65207393920657
 31
0.0
 11
306.0790025857561
 21
60.70176243066482
 31
0.0
 11
306.0790025857561
 21
60.72006871699154
 31
0.0
 11
306.0608349062375
 21
60.72006871699153
 31
0.0
 11
306.0087145141762
 21
60.72006871699154
 31
0.0
 11
305.9262153793134
 21
60.72006871699154
 31
0.0
 11
305.8169114713904
 21
60.72006871699154
 31
0.0
 11
305.6843767601486
 21
60.72006871699153
 31
0.0
 11
305.5321852153295
 21
60.72006871699153
 31
0.0
 11
305.3639108066743
 21
60.72006871699155
 31
0.0
 11
305.1831275039244
 21
60.72006871699154
 31
0.0
 11
304.993409276821
 21
60.72006871699154
 31
0.0
 11
304.7983300951056
 21
60.72006871699155
 31
0.0
 11
304.6014639285196
 21
60.72006871699154
 31
0.0
 11
304.4063847468042
 21
60.72006871699154
 31
0.0
 11
304.2166665197009
 21
60.72006871699154
 31
0.0
 11
304.0358832169509
 21
60.72006871699155
 31
0.0
 11
303.8676088082956
 21
60.72006871699153
 31
0.0
 11
303.7154172634765
 21
60.72006871699153
 31
0.0
 11
303.5828825522348
 21
60.72006871699155
 31
0.0
 11
303.4735786443118
 21
60.72006871699153
 31
0.0
 11
303.391079509449
 21
60.72006871699154
 31
0.0
 11
303.3389591173876
 21
60.72006871699153
 31
0.0
 11
303.3207914378691
 21
60.72006871699154
 31
0.0
 11
303.1163984317916
 21
60.70225977342046
 31
0.0
 11
302.9457370407379
 21
60.65293826524005
 31
0.0
 11
302.8062211163847
 21
60.57826217624959
 31
0.0
 11
302.6952645104086
 21
60.48438949024835
 31
0.0
 11
302.6102810744865
 21
60.37747819103562
 31
0.0
 11
302.5486846602951
 21
60.26368626241066
 31
0.0
 11
302.507889119511
 21
60.14917168817273
 31
0.0
 11
302.4853083038109
 21
60.04009245212112
 31
0.0
 11
302.4783560648716
 21
59.94260653805509
 31
0.0
 11
302.4783560648716
 21
59.9253096698363
 31
0.0
 11
302.4783560648716
 21
59.87642721617449
 31
0.0
 11
302.4783560648717
 21
59.80047140356154
 31
0.0
 11
302.4783560648716
 21
59.70195445848929
 31
0.0
 11
302.4783560648715
 21
59.5853886074496
 31
0.0
 11
302.4783560648716
 21
59.45528607693434
 31
0.0
 11
302.4783560648716
 21
59.31615909343536
 31
0.0
 11
302.4783560648716
 21
59.17251988344452
 31
0.0
 11
302.4783560648716
 21
59.02888067345368
 31
0.0
 11
302.4783560648716
 21
58.8897536899547
 31
0.0
 11
302.4783560648716
 21
58.75965115943944
 31
0.0
 11
302.4783560648716
 21
58.64308530839975
 31
0.0
 11
302.4783560648716
 21
58.54456836332751
 31
0.0
 11
302.4783560648716
 21
58.46861255071455
 31
0.0
 11
302.4783560648716
 21
58.41973009705274
 31
0.0
 11
302.4783560648716
 21
58.40243322883395
 31
0.0
 11
302.4853083038109
 21
58.30494709700388
 31
0.0
 11
302.507889119511
 21
58.19586727734465
 31
0.0
 11
302.5486846602951
 21
58.08135185818224
 31
0.0
 11
302.6102810744865
 21
57.96755892784269
 31
0.0
 11
302.6952645104087
 21
57.860646574652
 31
0.0
 11
302.8062211163847
 21
57.7667728869362
 31
0.0
 11
302.9457370407379
 21
57.69209595302127
 31
0.0
 11
303.1163984317917
 21
57.64277386123324
 31
0.0
 11
303.3207914378691
 21
57.62496469989811
 31
0.0
 11
303.3388136638967
 21
57.62496469989811
 31
0.0
 11
303.3901076918214
 21
57.62496469989811
 31
0.0
 11
303.470514546406
 21
57.6249646998981
 31
0.0
 11
303.5758752524134
 21
57.62496469989811
 31
0.0
 11
303.7020308346065
 21
57.6249646998981
 31
0.0
 11
303.8448223177481
 21
57.62496469989811
 31
0.0
 11
304.0000907266012
 21
57.62496469989811
 31
0.0
 11
304.1636770859284
 21
57.6249646998981
 31
0.0
 11
304.3314224204929
 21
57.62496469989811
 31
0.0
 11
304.4991677550574
 21
57.62496469989811
 31
0.0
 11
304.6627541143847
 21
57.62496469989811
 31
0.0
 11
304.8180225232377
 21
57.62496469989811
 31
0.0
 11
304.9608140063793
 21
57.62496469989811
 31
0.0
 11
305.0869695885725
 21
57.62496469989811
 31
0.0
 11
305.1923302945798
 21
57.6249646998981
 31
0.0
 11
305.2727371491645
 21
57.62496469989811
 31
0.0
 11
305.3240311770891
 21
57.62496469989811
 31
0.0
 11
305.3420534031167
 21
57.62496469989811
 31
0.0
 11
305.5020447372927
 21
57.63513658616834
 31
0.0
 11
305.6363447866171
 21
57.66336908998777
 31
0.0
 11
305.7483706635774
 21
57.70623747886939
 31
0.0
 11
305.8415394806614
 21
57.76031702032626
 31
0.0
 11
305.9192683503565
 21
57.82218298187142
 31
0.0
 11
305.9919305301149
 21
57.89615722390987
 31
0.0
 11
306.0612972125745
 21
57.98902936902095
 31
0.0
 11
306.1199855328101
 21
58.10293941780904
 31
0.0
 11
306.1606126258966
 21
58.24002737087856
 31
0.0
 11
306.1757956269088
 21
58.40243322883395
 31
0.0
 11
306.1757956269087
 21
58.42085322159724
 31
0.0
 11
306.1757956269088
 21
58.47213049874914
 31
0.0
 11
306.1757956269088
 21
58.55029100858262
 31
0.0
 11
306.1757956269088
 21
58.64936069939065
 31
0.0
 11
306.1757956269088
 21
58.76336551946623
 31
0.0
 11
306.1757956269088
 21
58.88633141710231
 31
0.0
 11
306.1757956269088
 21
59.01228434059192
 31
0.0
 11
306.1757956269088
 21
59.13525023822802
 31
0.0
 11
306.1757956269088
 21
59.24925505830359
 31
0.0
 11
306.1757956269088
 21
59.34832474911162
 31
0.0
 11
306.1757956269088
 21
59.42648525894508
 31
0.0
 11
306.1757956269088
 21
59.47776253609698
 31
0.0
 11
306.1757956269088
 21
59.49618252886029
 31
0.0
 11
306.1581936245054
 21
59.49618252886029
 31
0.0
 11
306.1080956176648
 21
59.49618252886029
 31
0.0
 11
306.0295636069416
 21
59.49618252886028
 31
0.0
 11
305.9266595928908
 21
59.49618252886029
 31
0.0
 11
305.8034455760668
 21
59.49618252886028
 31
0.0
 11
305.663983557024
 21
59.49618252886029
 31
0.0
 11
305.5123355363175
 21
59.49618252886028
 31
0.0
 11
305.3525635145016
 21
59.49618252886029
 31
0.0
 11
305.1887294921311
 21
59.49618252886029
 31
0.0
 11
305.0248954697606
 21
59.49618252886029
 31
0.0
 11
304.8651234479447
 21
59.49618252886029
 31
0.0
 11
304.7134754272381
 21
59.49618252886029
 31
0.0
 11
304.5740134081955
 21
59.49618252886029
 31
0.0
 11
304.4507993913714
 21
59.49618252886029
 31
0.0
 11
304.3478953773205
 21
59.49618252886028
 31
0.0
 11
304.2693633665974
 21
59.49618252886029
 31
0.0
 11
304.2192653597568
 21
59.49618252886029
 31
0.0
 11
304.2016633573534
 21
59.49618252886029
 31
0.0
 11
304.2016633573534
 21
59.4787849782505
 31
0.0
 11
304.2016633573534
 21
59.43156305516681
 31
0.0
 11
304.2016633573535
 21
59.36197285272766
 31
0.0
 11
304.2016633573534
 21
59.27747046405158
 31
0.0
 11
304.2016633573534
 21
59.185511982257
 31
0.0
 11
304.2016633573534
 21
59.09355350046243
 31
0.0
 11
304.2016633573535
 21
59.00905111178634
 31
0.0
 11
304.2016633573534
 21
58.9394609093472
 31
0.0
 11
304.2016633573534
 21
58.89223898626351
 31
0.0
 11
304.2016633573534
 21
58.87484143565372
 31
0.0
 11
304.2186300744615
 21
58.87484143565372
 31
0.0
 11
304.266136882364
 21
58.87484143565371
 31
0.0
 11
304.3390937659287
 21
58.87484143565372
 31
0.0
 11
304.432410710023
 21
58.87484143565371
 31
0.0
 11
304.5409976995146
 21
58.87484143565372
 31
0.0
 11
304.659764719271
 21
58.87484143565372
 31
0.0
 11
304.7836217541598
 21
58.87484143565372
 31
0.0
 11
304.9074787890486
 21
58.87484143565372
 31
0.0
 11
305.026245808805
 21
58.87484143565372
 31
0.0
 11
305.1348327982966
 21
58.87484143565371
 31
0.0
 11
305.2281497423909
 21
58.87484143565372
 31
0.0
 11
305.3011066259555
 21
58.87484143565371
 31
0.0
 11
305.3486134338581
 21
58.87484143565372
 31
0.0
 11
305.3655801509662
 21
58.87484143565372
 31
0.0
 11
305.3655801509661
 21
58.85865590558308
 31
0.0
 11
305.3655801509662
 21
58.81527868499378
 31
0.0
 11
305.3655801509662
 21
58.75247882831969
 31
0.0
 11
305.3655801509661
 21
58.67802538999476
 31
0.0
 11
305.3655801509662
 21
58.59968742445287
 31
0.0
 11
305.3655801509662
 21
58.52523398612794
 31
0.0
 11
305.3655801509662
 21
58.46243412945385
 31
0.0
 11
305.3655801509662
 21
58.41905690886455
 31
0.0
 11
305.3655801509662
 21
58.40287137879391
 31
0.0
  0
SPLINE
  5
1EC
330
8B
100
AcDbEntity
  8
GEZE_Logo
  6
Continuous
 62
     7
100
AcDbSpline
210
0.0
220
0.0
230
1.0
 70
    11
 71
     3
 72
    61
 73
    57
 74
    55
 42
0.000000001
 43
0.0000000001
 44
0.00000001
 40
0.0
 40
0.0
 40
0.0
 40
0.0
 40
0.1636063724422354
 40
0.3271278859735781
 40
0.4980347228118484
 40
0.9486072910592861
 40
1.585623680209377
 40
2.315861979869812
 40
3.046100279502856
 40
3.683116668536758
 40
4.133689236388623
 40
4.304596072470336
 40
4.468117292107038
 40
4.631723540372935
 40
4.839706064577729
 40
5.424959214296099
 40
6.329441355185612
 40
7.495110852667427
 40
8.863926071970685
 40
10.37784537827803
 40
11.97882713678665
 40
13.60882971271296
 40
15.20981147128679
 40
16.72373077774511
 40
18.092545997329
 40
19.25821549528188
 40
20.16269763684845
 40
20.74795078727441
 40
20.95593331180605
 40
21.11953559698416
 40
21.28304969431442
 40
21.45395653036668
 40
21.90452909813519
 40
22.54154548703508
 40
23.27178378648493
 40
24.00202208591299
 40
24.63903847475886
 40
25.08961104247033
 40
25.26051787849708
 40
25.424032269052
 40
25.58763467579198
 40
25.79561720032425
 40
26.38087035075203
 40
27.28535249232235
 40
28.45102199028194
 40
29.81983720987771
 40
31.33375651635638
 40
32.93473827496494
 40
34.56474085095014
 40
36.16572260955869
 40
37.67964191603759
 40
39.04845713563359
 40
40.21412663359335
 40
41.11860877516384
 40
41.7038619255919
 40
41.91184444015605
 40
41.91184444015605
 40
41.91184444015605
 40
41.91184444015605
 10
301.8378824234137
 20
61.37639259200054
 30
0.0
 10
301.7810530691824
 20
61.36310406564205
 30
0.0
 10
301.667423831351
 20
61.33653391854058
 30
0.0
 10
301.6121900578738
 20
61.15747318191088
 30
0.0
 10
301.633393055178
 20
60.90081478363157
 30
0.0
 10
301.6191008017473
 20
60.4779486830509
 30
0.0
 10
301.625897831946
 20
59.87355596744667
 30
0.0
 10
301.6230461504458
 20
59.17396965430155
 30
0.0
 10
301.6258809860844
 20
58.47455445135009
 30
0.0
 10
301.6191513650452
 20
57.86975471219482
 30
0.0
 10
301.6332964189269
 20
57.44774430489014
 30
0.0
 10
301.6123124447964
 20
57.18981657614044
 30
0.0
 10
301.6669754826512
 20
57.01406285126934
 30
0.0
 10
301.855169907087
 20
56.95715145666203
 30
0.0
 10
302.16935984854
 20
56.98471014462864
 30
0.0
 10
302.7388481471235
 20
56.96395808798843
 30
0.0
 10
303.6221163785191
 20
56.97477153686727
 30
0.0
 10
304.7691773929909
 20
56.97049243388151
 30
0.0
 10
306.118391515943
 20
56.97196202213282
 30
0.0
 10
307.6130436398965
 20
56.97150328530226
 30
0.0
 10
309.1946531604561
 20
56.97162863628238
 30
0.0
 10
310.8053214439424
 20
56.97162863600428
 30
0.0
 10
312.3869309494032
 20
56.97150328469531
 30
0.0
 10
313.881583129041
 20
56.97196202038204
 30
0.0
 10
315.230797074437
 20
56.97049243311774
 30
0.0
 10
316.3778586072632
 20
56.9747715301283
 30
0.0
 10
317.2611255305795
 20
56.96395809300495
 30
0.0
 10
317.8306163412531
 20
56.98471012434675
 30
0.0
 10
318.144801646446
 20
56.95715158251861
 30
0.0
 10
318.3329989266418
 20
57.01406095931083
 30
0.0
 10
318.387633587501
 20
57.18982121637621
 30
0.0
 10
318.3666596922795
 20
57.44774239428577
 30
0.0
 10
318.3807978631509
 20
57.86975688913589
 30
0.0
 10
318.374072820741
 20
58.47454717309849
 30
0.0
 10
318.3768999831524
 20
59.17399943431825
 30
0.0
 10
318.3740728267124
 20
59.87345169365557
 30
0.0
 10
318.3807978449634
 20
60.47824198200894
 30
0.0
 10
318.3666597267269
 20
60.90025646748944
 30
0.0
 10
318.3876335514152
 20
61.15817775554704
 30
0.0
 10
318.3329989896
 20
61.333938133592
 30
0.0
 10
318.1448017293792
 20
61.39084804150772
 30
0.0
 10
317.8306163019367
 20
61.36328927159094
 30
0.0
 10
317.2611255537701
 20
61.38404147501743
 30
0.0
 10
316.3778585943413
 20
61.37322792775468
 30
0.0
 10
315.2307970948993
 20
61.37750717903917
 30
0.0
 10
313.881583047917
 20
61.3760370168871
 30
0.0
 10
312.3869312890378
 20
61.37649818595447
 30
0.0
 10
310.8053200900445
 20
61.37636302587023
 30
0.0
 10
309.1946582639167
 20
61.37640043232622
 30
0.0
 10
307.6130254111412
 20
61.37639062444113
 30
0.0
 10
306.1184528965563
 20
61.37639305394971
 30
0.0
 10
304.7689849857939
 20
61.37639249109287
 30
0.0
 10
303.6226626787926
 20
61.37639261013592
 30
0.0
 10
302.7375277526229
 20
61.37639258892348
 30
0.0
 10
302.1716218165691
 20
61.37639259030522
 30
0.0
 10
301.9072099282621
 20
61.37639259203674
 30
0.0
 10
301.8378824234137
 20
61.37639259200054
 30
0.0
 11
301.8378824234137
 21
61.37639259200054
 31
0.0
 11
301.6867418009787
 21
61.31375429272597
 31
0.0
 11
301.6240360329603
 21
61.16273352652995
 31
0.0
 11
301.6240360329603
 21
60.99182669039379
 31
0.0
 11
301.6240360329603
 21
60.5412541223985
 31
0.0
 11
301.6240360329602
 21
59.90423773316375
 31
0.0
 11
301.6240360329603
 21
59.17399943330928
 31
0.0
 11
301.6240360329603
 21
58.44376113345483
 31
0.0
 11
301.6240360329603
 21
57.80674474422008
 31
0.0
 11
301.6240360329603
 21
57.35617217622477
 31
0.0
 11
301.6240360329603
 21
57.18526534008863
 31
0.0
 11
301.6867418009787
 21
57.03424489139256
 31
0.0
 11
301.8378824234137
 21
56.97160690961798
 31
0.0
 11
302.0458649479461
 21
56.97160690961798
 31
0.0
 11
302.6311180983743
 21
56.97160690961799
 31
0.0
 11
303.5356002399453
 21
56.97160690961798
 31
0.0
 11
304.7012697379057
 21
56.97160690961799
 31
0.0
 11
306.0700849575024
 21
56.97160690961798
 31
0.0
 11
307.5840042639821
 21
56.97160690961799
 31
0.0
 11
309.1849860225917
 21
56.97160690961798
 31
0.0
 11
310.8149885985779
 21
56.97160690961798
 31
0.0
 11
312.4159703571875
 21
56.97160690961798
 31
0.0
 11
313.9298896636672
 21
56.97160690961798
 31
0.0
 11
315.2987048832639
 21
56.97160690961798
 31
0.0
 11
316.4643743812243
 21
56.97160690961798
 31
0.0
 11
317.3688565227953
 21
56.97160690961798
 31
0.0
 11
317.9541096732235
 21
56.97160690961798
 31
0.0
 11
318.1620921977559
 21
56.97160690961798
 31
0.0
 11
318.3132285301234
 21
57.03424489139255
 31
0.0
 11
318.3759157228099
 21
57.18526534008863
 31
0.0
 11
318.37591572281
 21
57.35617217622477
 31
0.0
 11
318.3759157228099
 21
57.80674474422008
 31
0.0
 11
318.3759157228099
 21
58.44376113345484
 31
0.0
 11
318.3759157228099
 21
59.17399943330928
 31
0.0
 11
318.3759157228099
 21
59.90423773316375
 31
0.0
 11
318.37591572281
 21
60.5412541223985
 31
0.0
 11
318.3759157228099
 21
60.9918266903938
 31
0.0
 11
318.3759157228099
 21
61.16273352652995
 31
0.0
 11
318.3132285301234
 21
61.31375429272597
 31
0.0
 11
318.1620921977559
 21
61.37639259200054
 31
0.0
 11
317.9541096732235
 21
61.37639259200053
 31
0.0
 11
317.3688565227953
 21
61.37639259200054
 31
0.0
 11
316.4643743812243
 21
61.37639259200054
 31
0.0
 11
315.2987048832639
 21
61.37639259200054
 31
0.0
 11
313.9298896636672
 21
61.37639259200054
 31
0.0
 11
312.4159703571875
 21
61.37639259200055
 31
0.0
 11
310.8149885985779
 21
61.37639259200054
 31
0.0
 11
309.1849860225917
 21
61.37639259200054
 31
0.0
 11
307.5840042639822
 21
61.37639259200056
 31
0.0
 11
306.0700849575024
 21
61.37639259200054
 31
0.0
 11
304.7012697379057
 21
61.37639259200054
 31
0.0
 11
303.5356002399453
 21
61.37639259200054
 31
0.0
 11
302.6311180983744
 21
61.37639259200055
 31
0.0
 11
302.045864947946
 21
61.37639259200053
 31
0.0
 11
301.8378824234137
 21
61.37639259200054
 31
0.0
  0
SPLINE
  5
1ED
330
8B
100
AcDbEntity
  8
GEZE_Logo
  6
Continuous
 62
     7
100
AcDbSpline
210
0.0
220
0.0
230
1.0
 70
    11
 71
     3
 72
    39
 73
    35
 74
    33
 42
0.000000001
 43
0.0000000001
 44
0.00000001
 40
0.0
 40
0.0
 40
0.0
 40
0.0
 40
0.7014308787730101
 40
2.55065776727173
 40
5.165081988942461
 40
8.162104877198942
 40
11.15912776545537
 40
13.77355198712576
 40
15.62277887562431
 40
16.32420976436504
 40
16.96528180373132
 40
17.60601374668383
 40
18.22749315043448
 40
19.5947478387386
 40
20.96200252712076
 40
21.58348193095661
 40
22.22421431381619
 40
22.86528617078004
 40
23.56671705951446
 40
25.41594394799141
 40
28.03036816961144
 40
31.02739105775264
 40
34.02441394574207
 40
36.63883816681196
 40
38.48806505425175
 40
39.18949594227523
 40
39.83057995687063
 40
40.47131702489663
 40
41.09279642887839
 40
42.46005111768533
 40
43.82730580678052
 40
44.44878521152802
 40
45.08952184087318
 40
45.73060603902486
 40
45.73060603902486
 40
45.73060603902486
 40
45.73060603902486
 10
318.1620921977559
 20
56.34799886661852
 30
0.0
 10
317.9282816949569
 20
56.34800010869332
 30
0.0
 10
317.0780616760192
 20
56.34800462712774
 30
0.0
 10
315.3563829936152
 20
56.34791399518126
 30
0.0
 10
312.8693962176116
 20
56.34847884542256
 30
0.0
 10
310.0003346690069
 20
56.34594319835662
 30
0.0
 10
307.1292777144134
 20
56.35521671367455
 30
0.0
 10
304.6470374573366
 20
56.32769083295844
 30
0.0
 10
302.9153800848683
 20
56.3866558181567
 30
0.0
 10
301.8661345892197
 20
56.29986907512245
 30
0.0
 10
301.1686581405417
 20
56.51527975015415
 30
0.0
 10
300.9572555325481
 20
57.18616935864626
 30
0.0
 10
301.0280445595423
 20
58.05085975882987
 30
0.0
 10
300.9807194003041
 20
59.17399943066965
 30
0.0
 10
301.0280445065766
 20
60.29713911049072
 30
0.0
 10
300.9572556069039
 20
61.16182964349367
 30
0.0
 10
301.1686579046167
 20
61.83271939399086
 30
0.0
 10
301.8661345621928
 20
62.04813057820023
 30
0.0
 10
302.9153811416881
 20
61.96133656475413
 30
0.0
 10
304.6470230729519
 20
62.02039328333289
 30
0.0
 10
307.1293588264138
 20
61.99230203808588
 30
0.0
 10
309.9999873397735
 20
62.00411137300819
 30
0.0
 10
312.8706157394746
 20
61.99230216396288
 30
0.0
 10
315.3529517622846
 20
62.02039290044281
 30
0.0
 10
317.0845931253044
 20
61.96133728880761
 30
0.0
 10
318.1338445349198
 20
62.04812999793622
 30
0.0
 10
318.8313254578648
 20
61.83271859963568
 30
0.0
 10
319.0427501214776
 20
61.161845467296
 30
0.0
 10
318.9719413048161
 20
60.29706740924191
 30
0.0
 10
319.0193896148799
 20
59.17463547213944
 30
0.0
 10
318.9716525752095
 20
58.04908112499737
 30
0.0
 10
319.0432223171168
 20
57.18897372132291
 30
0.0
 10
318.8294461156017
 20
56.50415263438151
 30
0.0
 10
318.3845837104373
 20
56.40005953534402
 30
0.0
 10
318.1620921977559
 20
56.34799886661852
 30
0.0
 11
318.1620921977559
 21
56.34799886661852
 31
0.0
 11
317.4606613090146
 21
56.34799886661852
 31
0.0
 11
315.6114344205149
 21
56.34799886661852
 31
0.0
 11
312.9970101988429
 21
56.34799886661852
 31
0.0
 11
309.9999873105848
 21
56.34799886661852
 31
0.0
 11
307.0029644223267
 21
56.34799886661852
 31
0.0
 11
304.3885402006547
 21
56.34799886661851
 31
0.0
 11
302.5393133121549
 21
56.34799886661852
 31
0.0
 11
301.8378824234137
 21
56.34799886661852
 31
0.0
 11
301.2456843350433
 21
56.59350810042789
 31
0.0
 11
301.0
 21
57.18526534008863
 31
0.0
 11
301.0
 21
57.80674474422008
 31
0.0
 11
301.0
 21
59.17399943330928
 31
0.0
 11
301.0
 21
60.5412541223985
 31
0.0
 11
301.0
 21
61.16273352652995
 31
0.0
 11
301.2456843350433
 21
61.75449124244062
 31
0.0
 11
301.8378824234137
 21
62.0
 31
0.0
 11
302.5393133121549
 21
62.0
 31
0.0
 11
304.3885402006547
 21
62.0
 31
0.0
 11
307.0029644223266
 21
62.0
 31
0.0
 11
309.9999873105848
 21
62.0
 31
0.0
 11
312.9970101988429
 21
62.0
 31
0.0
 11
315.6114344205149
 21
62.0
 31
0.0
 11
317.4606613090146
 21
62.0
 31
0.0
 11
318.1620921977559
 21
62.0
 31
0.0
 11
318.7543034474146
 21
61.75449124244063
 31
0.0
 11
319.0
 21
61.16273352652995
 31
0.0
 11
319.0
 21
60.5412541223985
 31
0.0
 11
319.0
 21
59.17399943330928
 31
0.0
 11
319.0
 21
57.80674474422008
 31
0.0
 11
319.0
 21
57.18526534008863
 31
0.0
 11
318.7543034474146
 21
56.59350810042789
 31
0.0
 11
318.1620921977559
 21
56.34799886661852
 31
0.0
  0
LWPOLYLINE
  5
1EE
330
8B
100
AcDbEntity
  8
GEZE_Logo
  6
Continuous
 62
     7
100
AcDbPolyline
 90
       11
 70
     1
 43
0.05
 10
313.6954455688647
 20
60.72007506699097
 10
310.4629466959896
 20
60.72007506699097
 10
310.4629466959896
 20
60.0658409767909
 10
312.5715972999803
 20
60.0658409767909
 10
310.4629466959896
 20
58.27933849008536
 10
310.4629466959896
 20
57.62496469989811
 10
313.7954834571936
 20
57.62496469989811
 10
313.7954834571936
 20
58.27933849008536
 10
311.5792575157533
 20
58.27933849008536
 10
313.6954455688647
 20
60.0658409767909
 10
313.6954455688647
 20
60.72007506699097
  0
LWPOLYLINE
  5
1EF
330
8B
100
AcDbEntity
  8
GEZE_Logo
  6
Continuous
 62
     7
100
AcDbPolyline
 90
       13
 70
     1
 43
0.05
 10
309.5983117468636
 20
58.87415563571641
 10
309.5983117468636
 20
59.49763032872795
 10
307.4884673430121
 20
59.49763032872795
 10
307.4884673430121
 20
60.06582192679266
 10
309.9870587015098
 20
60.06582192679266
 10
309.9870587015098
 20
60.72011316698745
 10
306.6266773356961
 20
60.72011316698745
 10
306.6266773356961
 20
57.6250027998946
 10
309.9870587015098
 20
57.6250027998946
 10
309.9870587015098
 20
58.27933849008536
 10
307.4884673430121
 20
58.27933849008536
 10
307.4884673430121
 20
58.87415563571641
 10
309.5983117468636
 20
58.87415563571641
  0
LWPOLYLINE
  5
1F0
330
8B
100
AcDbEntity
  8
GEZE_Logo
  6
Continuous
 62
     7
100
AcDbPolyline
 90
       13
 70
     1
 43
0.05
 10
317.1276773184376
 20
58.87415563571641
 10
317.1276773184376
 20
59.49763032872795
 10
315.0178329145862
 20
59.49763032872795
 10
315.0178329145862
 20
60.06582192679266
 10
317.5164242730838
 20
60.06582192679266
 10
317.5164242730838
 20
60.72011316698745
 10
314.1560427651283
 20
60.72011316698745
 10
314.1560427651283
 20
57.6250027998946
 10
317.5164242730838
 20
57.6250027998946
 10
317.5164242730838
 20
58.27933849008536
 10
315.0178329145862
 20
58.27933849008536
 10
315.0178329145862
 20
58.87415563571641
 10
317.1276773184376
 20
58.87415563571641
  0
ENDBLK
  5
8D
330
8B
100
AcDbEntity
  8
0
100
AcDbBlockEnd
  0
BLOCK
  5
90
330
8E
100
AcDbEntity
  8
0
100
AcDbBlockBegin
  2
a3_gr
 70
     0
 10
21.0
 20
21.0
 30
0.0
  3
a3_gr
  1
a3_gr
  0
INSERT
  5
8F
330
8E
100
AcDbEntity
  8
0
100
AcDbBlockReference
  2
GEZE-Logo
 10
299.0
 20
64.0
 30
0.0
  0
LINE
  5
1F1
330
8E
100
AcDbEntity
  8
0
  6
Continuous
 62
     3
100
AcDbLine
 10
36.0
 20
42.5
 30
0.0
 11
36.0
 21
302.0
 31
0.0
  0
LINE
  5
1F2
330
8E
100
AcDbEntity
  8
0
  6
Continuous
 62
     3
100
AcDbLine
 10
21.0
 20
68.800049
 30
0.0
 11
26.0
 21
68.800049
 31
0.0
  0
LINE
  5
1F3
330
8E
100
AcDbEntity
  8
0
  6
Continuous
 62
     3
100
AcDbLine
 10
26.0
 20
116.599976
 30
0.0
 11
21.0
 21
116.599976
 31
0.0
  0
LINE
  5
1F4
330
8E
100
AcDbEntity
  8
0
  6
Continuous
 62
     3
100
AcDbLine
 10
21.0
 20
164.400024
 30
0.0
 11
26.0
 21
164.400024
 31
0.0
  0
LINE
  5
1F5
330
8E
100
AcDbEntity
  8
0
  6
Continuous
 62
     3
100
AcDbLine
 10
26.0
 20
212.200073
 30
0.0
 11
21.0
 21
212.200073
 31
0.0
  0
LINE
  5
1F6
330
8E
100
AcDbEntity
  8
0
  6
Continuous
 62
     3
100
AcDbLine
 10
21.0
 20
260.0
 30
0.0
 11
26.0
 21
260.0
 31
0.0
  0
LINE
  5
1F7
330
8E
100
AcDbEntity
  8
0
  6
Continuous
 62
     3
100
AcDbLine
 10
72.300049
 20
307.0
 30
0.0
 11
72.300049
 21
302.0
 31
0.0
  0
LINE
  5
1F8
330
8E
100
AcDbEntity
  8
0
  6
Continuous
 62
     3
100
AcDbLine
 10
123.5
 20
302.0
 30
0.0
 11
123.5
 21
307.0
 31
0.0
  0
LINE
  5
1F9
330
8E
100
AcDbEntity
  8
0
  6
Continuous
 62
     3
100
AcDbLine
 10
174.800049
 20
307.0
 30
0.0
 11
174.800049
 21
302.0
 31
0.0
  0
LINE
  5
1FA
330
8E
100
AcDbEntity
  8
0
  6
Continuous
 62
     3
100
AcDbLine
 10
226.0
 20
302.0
 30
0.0
 11
226.0
 21
307.0
 31
0.0
  0
LINE
  5
1FB
330
8E
100
AcDbEntity
  8
0
  6
Continuous
 62
     3
100
AcDbLine
 10
277.300049
 20
307.0
 30
0.0
 11
277.300049
 21
302.0
 31
0.0
  0
LINE
  5
1FC
330
8E
100
AcDbEntity
  8
0
  6
Continuous
 62
     3
100
AcDbLine
 10
328.5
 20
302.0
 30
0.0
 11
328.5
 21
307.0
 31
0.0
  0
LINE
  5
1FD
330
8E
100
AcDbEntity
  8
0
  6
Continuous
 62
     3
100
AcDbLine
 10
379.699951
 20
307.0
 30
0.0
 11
379.699951
 21
302.0
 31
0.0
  0
LINE
  5
1FE
330
8E
100
AcDbEntity
  8
0
  6
Continuous
 62
     3
100
AcDbLine
 10
426.0
 20
260.0
 30
0.0
 11
431.0
 21
260.0
 31
0.0
  0
LINE
  5
1FF
330
8E
100
AcDbEntity
  8
0
  6
Continuous
 62
     3
100
AcDbLine
 10
426.0
 20
212.200073
 30
0.0
 11
431.0
 21
212.200073
 31
0.0
  0
LINE
  5
200
330
8E
100
AcDbEntity
  8
0
  6
Continuous
 62
     3
100
AcDbLine
 10
426.0
 20
164.400024
 30
0.0
 11
431.0
 21
164.400024
 31
0.0
  0
LINE
  5
201
330
8E
100
AcDbEntity
  8
0
  6
Continuous
 62
     3
100
AcDbLine
 10
426.0
 20
116.599976
 30
0.0
 11
431.0
 21
116.599976
 31
0.0
  0
LINE
  5
202
330
8E
100
AcDbEntity
  8
0
  6
Continuous
 62
     2
100
AcDbLine
 10
21.0
 20
21.0
 30
0.0
 11
21.0
 21
307.0
 31
0.0
  0
LINE
  5
203
330
8E
100
AcDbEntity
  8
0
  6
Continuous
 62
     2
100
AcDbLine
 10
21.0
 20
307.0
 30
0.0
 11
431.0
 21
307.0
 31
0.0
  0
LINE
  5
204
330
8E
100
AcDbEntity
  8
0
  6
Continuous
 62
     3
100
AcDbLine
 10
426.0
 20
85.20001154812942
 30
0.0
 11
426.0
 21
302.0000000000001
 31
0.0
  0
LINE
  5
205
330
8E
100
AcDbEntity
  8
0
  6
Continuous
 62
     3
100
AcDbLine
 10
426.0
 20
302.0000000000001
 30
0.0
 11
26.0
 21
302.0
 31
0.0
  0
LINE
  5
206
330
8E
100
AcDbEntity
  8
0
  6
Continuous
 62
     3
100
AcDbLine
 10
26.0
 20
302.0
 30
0.0
 11
26.0
 21
42.49999999999999
 31
0.0
  0
LINE
  5
207
330
8E
100
AcDbEntity
  8
0
  6
Continuous
 62
     2
100
AcDbLine
 10
431.0
 20
307.0
 30
0.0
 11
431.0
 21
21.0
 31
0.0
  0
LINE
  5
208
330
8E
100
AcDbEntity
  8
1
  6
Continuous
 62
     3
100
AcDbLine
 10
252.0
 20
26.0
 30
0.0
 11
138.678489815268
 21
26.0
 31
0.0
  0
LINE
  5
209
330
8E
100
AcDbEntity
  8
0
  6
Continuous
 62
     2
100
AcDbLine
 10
431.0
 20
21.0
 30
0.0
 11
21.0
 21
21.0
 31
0.0
  0
LINE
  5
20A
330
8E
100
AcDbEntity
  8
0
  6
Continuous
 62
     1
100
AcDbLine
 10
299.0
 20
64.0
 30
0.0
 11
299.0
 21
21.0
 31
0.0
  0
LINE
  5
20B
330
8E
100
AcDbEntity
  8
0
  6
Continuous
 62
     2
100
AcDbLine
 10
431.0
 20
21.0
 30
0.0
 11
252.0
 21
21.0
 31
0.0
  0
LINE
  5
20C
330
8E
100
AcDbEntity
  8
1
  6
Continuous
 62
     1
100
AcDbLine
 10
340.0
 20
47.0
 30
0.0
 11
340.0
 21
64.0
 31
0.0
  0
LINE
  5
20D
330
8E
100
AcDbEntity
  8
0
  6
Continuous
 62
     1
100
AcDbLine
 10
299.0
 20
47.0
 30
0.0
 11
431.0
 21
47.0
 31
0.0
  0
LINE
  5
20E
330
8E
100
AcDbEntity
  8
0
  6
Continuous
 62
     3
100
AcDbLine
 10
303.0
 20
72.0
 30
0.0
 11
265.594564738847
 21
72.0
 31
0.0
  0
LINE
  5
20F
330
8E
100
AcDbEntity
  8
0
  6
Continuous
 62
     3
100
AcDbLine
 10
254.30687888697
 20
72.0
 30
0.0
 11
252.0
 21
72.0
 31
0.0
  0
LINE
  5
210
330
8E
100
AcDbEntity
  8
1
  6
DOT_CENTER
 62
     7
100
AcDbLine
 10
367.9345532084111
 20
21.32749751310985
 30
0.0
 11
367.9345532084111
 21
26.20795062751873
 31
0.0
  0
LINE
  5
211
330
8E
100
AcDbEntity
  8
1
  6
DOT_CENTER
 62
     7
100
AcDbLine
 10
365.4261638982121
 20
23.75
 30
0.0
 11
370.5792680245992
 21
23.75
 31
0.0
  0
LINE
  5
212
330
8E
100
AcDbEntity
  8
1
  6
DOT_CENTER
 62
     7
100
AcDbLine
 10
353.3204589663822
 20
23.75
 30
0.0
 11
361.7181101353093
 21
23.75
 31
0.0
  0
LINE
  5
213
330
8E
100
AcDbEntity
  8
1
  6
Continuous
 62
     4
100
AcDbLine
 10
354.0333010720884
 20
22.75
 30
0.0
 11
354.0333010720884
 21
24.75
 31
0.0
  0
LINE
  5
214
330
8E
100
AcDbEntity
  8
1
  6
Continuous
 62
     4
100
AcDbLine
 10
361.0333010720884
 20
21.75
 30
0.0
 11
354.0333010720884
 21
22.75
 31
0.0
  0
LINE
  5
215
330
8E
100
AcDbEntity
  8
1
  6
Continuous
 62
     4
100
AcDbLine
 10
361.0333010720884
 20
25.75
 30
0.0
 11
361.0333010720884
 21
21.75
 31
0.0
  0
LINE
  5
216
330
8E
100
AcDbEntity
  8
1
  6
Continuous
 62
     4
100
AcDbLine
 10
354.0333010720884
 20
24.75
 30
0.0
 11
361.0333010720884
 21
25.75
 31
0.0
  0
LINE
  5
217
330
8E
100
AcDbEntity
  8
0
  6
Continuous
 62
     1
100
AcDbLine
 10
376.0
 20
21.0
 30
0.0
 11
376.0
 21
47.0
 31
0.0
  0
LINE
  5
218
330
8E
100
AcDbEntity
  8
0
  6
Continuous
 62
     4
100
AcDbLine
 10
252.0
 20
25.30000300000002
 30
0.0
 11
299.0
 21
25.30000300000003
 31
0.0
  0
LINE
  5
219
330
8E
100
AcDbEntity
  8
0
  6
Continuous
 62
     3
100
AcDbLine
 10
299.0
 20
29.59999099999999
 30
0.0
 11
252.0
 21
29.59999099999999
 31
0.0
  0
LINE
  5
21A
330
8E
100
AcDbEntity
  8
0
  6
Continuous
 62
     3
100
AcDbLine
 10
252.0
 20
33.899994
 30
0.0
 11
299.0
 21
33.89999399999999
 31
0.0
  0
LINE
  5
21B
330
8E
100
AcDbEntity
  8
0
  6
Continuous
 62
     3
100
AcDbLine
 10
299.0
 20
38.199997
 30
0.0
 11
252.0
 21
38.199997
 31
0.0
  0
LINE
  5
21C
330
8E
100
AcDbEntity
  8
0
  6
Continuous
 62
     3
100
AcDbLine
 10
252.0
 20
42.5
 30
0.0
 11
299.0
 21
42.5
 31
0.0
  0
LINE
  5
21D
330
8E
100
AcDbEntity
  8
0
  6
Continuous
 62
     3
100
AcDbLine
 10
299.0
 20
46.79998799999999
 30
0.0
 11
252.0
 21
46.79998799999999
 31
0.0
  0
LINE
  5
21E
330
8E
100
AcDbEntity
  8
0
  6
Continuous
 62
     3
100
AcDbLine
 10
252.0
 20
51.099991
 30
0.0
 11
299.0
 21
51.09999099999999
 31
0.0
  0
LINE
  5
21F
330
8E
100
AcDbEntity
  8
0
  6
Continuous
 62
     3
100
AcDbLine
 10
299.0
 20
55.39999399999999
 30
0.0
 11
252.0
 21
55.39999399999999
 31
0.0
  0
LINE
  5
220
330
8E
100
AcDbEntity
  8
0
  6
Continuous
 62
     3
100
AcDbLine
 10
252.0
 20
59.699997
 30
0.0
 11
299.0
 21
59.699997
 31
0.0
  0
LINE
  5
221
330
8E
100
AcDbEntity
  8
0
  6
Continuous
 62
     3
100
AcDbLine
 10
265.0
 20
21.0
 30
0.0
 11
265.0
 21
64.0
 31
0.0
  0
LINE
  5
222
330
8E
100
AcDbEntity
  8
0
  6
Continuous
 62
     3
100
AcDbLine
 10
277.0
 20
21.0
 30
0.0
 11
277.0
 21
64.0
 31
0.0
  0
LINE
  5
223
330
8E
100
AcDbEntity
  8
0
  6
Continuous
 62
     3
100
AcDbLine
 10
285.0
 20
21.0
 30
0.0
 11
285.0
 21
64.0
 31
0.0
  0
LINE
  5
224
330
8E
100
AcDbEntity
  8
0
  6
Continuous
 62
     3
100
AcDbLine
 10
349.0
 20
38.30000000000001
 30
0.0
 11
299.0
 21
38.30000000000001
 31
0.0
  0
LINE
  5
225
330
8E
100
AcDbEntity
  8
0
  6
Continuous
 62
     3
100
AcDbLine
 10
299.0
 20
42.59999999999999
 30
0.0
 11
349.0
 21
42.59999999999999
 31
0.0
  0
LINE
  5
226
330
8E
100
AcDbEntity
  8
0
  6
Continuous
 62
     3
100
AcDbLine
 10
326.972922017593
 20
34.00000000000001
 30
0.0
 11
326.972922017593
 21
47.0
 31
0.0
  0
LINE
  5
227
330
8E
100
AcDbEntity
  8
0
  6
Continuous
 62
     3
100
AcDbLine
 10
340.0
 20
33.99999999999999
 30
0.0
 11
340.0
 21
47.0
 31
0.0
  0
LINE
  5
228
330
8E
100
AcDbEntity
  8
0
  6
Continuous
 62
     1
100
AcDbLine
 10
376.0
 20
33.96666658000001
 30
0.0
 11
349.0
 21
33.96666658000001
 31
0.0
  0
LINE
  5
229
330
8E
100
AcDbEntity
  8
0
  6
Continuous
 62
     1
100
AcDbLine
 10
252.0
 20
64.0
 30
0.0
 11
431.0
 21
64.0
 31
0.0
  0
LINE
  5
22A
330
8E
100
AcDbEntity
  8
0
  6
Continuous
 62
     1
100
AcDbLine
 10
431.0
 20
34.0
 30
0.0
 11
376.0
 21
34.0
 31
0.0
  0
LINE
  5
22B
330
8E
100
AcDbEntity
  8
0
  6
Continuous
 62
     1
100
AcDbLine
 10
349.0
 20
47.0
 30
0.0
 11
349.0
 21
21.0
 31
0.0
  0
LINE
  5
22C
330
8E
100
AcDbEntity
  8
0
  6
Continuous
 62
     1
100
AcDbLine
 10
349.0
 20
40.83333328999999
 30
0.0
 11
376.0
 21
40.83333328999999
 31
0.0
  0
LINE
  5
22D
330
8E
100
AcDbEntity
  8
0
  6
Continuous
 62
     1
100
AcDbLine
 10
349.0
 20
34.0
 30
0.0
 11
299.0
 21
34.0
 31
0.0
  0
LINE
  5
22E
330
8E
100
AcDbEntity
  8
0
  6
Continuous
 62
     3
100
AcDbLine
 10
257.5
 20
21.0
 30
0.0
 11
257.5
 21
64.0
 31
0.0
  0
LINE
  5
22F
330
8E
100
AcDbEntity
  8
0
  6
Continuous
 62
     1
100
AcDbLine
 10
347.0
 20
64.0
 30
0.0
 11
347.0
 21
85.20000440857497
 31
0.0
  0
LINE
  5
230
330
8E
100
AcDbEntity
  8
0
  6
Continuous
 62
     1
100
AcDbLine
 10
303.0
 20
64.0
 30
0.0
 11
303.0
 21
85.20000043211424
 31
0.0
  0
LINE
  5
231
330
8E
100
AcDbEntity
  8
0
  6
Continuous
 62
     2
100
AcDbLine
 10
431.0
 20
85.20001199999997
 30
0.0
 11
431.0
 21
21.0
 31
0.0
  0
LINE
  5
232
330
8E
100
AcDbEntity
  8
0
  6
Continuous
 62
     3
100
AcDbLine
 10
392.0
 20
72.70000000000002
 30
0.0
 11
431.0
 21
72.70000000000002
 31
0.0
  0
LINE
  5
233
330
8E
100
AcDbEntity
  8
1
  6
Continuous
 62
     1
100
AcDbLine
 10
392.0000000000001
 20
81.8000084754098
 30
0.0
 11
431.0
 21
81.8000084754098
 31
0.0
  0
LINE
  5
234
330
8E
100
AcDbEntity
  8
0
  6
Continuous
 62
     1
100
AcDbLine
 10
392.0000000000001
 20
85.20000847540979
 30
0.0
 11
392.0
 21
64.0
 31
0.0
  0
LINE
  5
235
330
8E
100
AcDbEntity
  8
0
  6
Continuous
 62
     2
100
AcDbLine
 10
252.0
 20
85.19999582303475
 30
0.0
 11
431.0
 21
85.20001199999997
 31
0.0
  0
LINE
  5
236
330
8E
100
AcDbEntity
  8
0
  6
Continuous
 62
     1
100
AcDbLine
 10
299.0
 20
52.0
 30
0.0
 11
340.0
 21
52.0
 31
0.0
  0
LINE
  5
237
330
8E
100
AcDbEntity
  8
1
  6
Continuous
 62
     1
100
AcDbLine
 10
252.0
 20
21.0
 30
0.0
 11
252.0
 21
85.19999582303475
 31
0.0
  0
LINE
  5
238
330
8E
100
AcDbEntity
  8
1
  6
Continuous
 62
     1
100
AcDbLine
 10
349.0
 20
26.5
 30
0.0
 11
376.0
 21
26.5
 31
0.0
  0
CIRCLE
  5
239
330
8E
100
AcDbEntity
  8
1
  6
Continuous
 62
     4
100
AcDbCircle
 10
367.9345532084111
 20
23.75
 30
0.0
 40
2.0
  0
CIRCLE
  5
23A
330
8E
100
AcDbEntity
  8
1
  6
Continuous
 62
     4
100
AcDbCircle
 10
367.9345532084111
 20
23.75
 30
0.0
 40
1.0
  0
MTEXT
  5
23B
330
8E
100
AcDbEntity
  8
1
 62
     4
100
AcDbMText
 10
393.475176912162
 20
36.3310629212675
 30
0.0
 40
2.5
 41
0.0
 71
     7
 72
     1
  1
siehe Tabelle\Psee table
  7
CONVERTER_11
 73
     1
 44
1.02040816326531
  0
MTEXT
  5
23D
330
8E
100
AcDbEntity
  8
0
 62
     7
100
AcDbMText
 10
79.1802527440239
 20
22.47087638261002
 30
0.0
 40
1.3
 41
0.0
 71
     8
 72
     1
  3
Diese Zeichnung entspricht dem Entwicklungsstand des Zeichnungsdatums bzw. der letzten \U+00c4nderungseintragung. Aus der\PBenutzung der Zeichnung k\U+00f6nnen keine Anspr\U+00fcche, gleich welcher Art, einschlie\U+00dflich Schadenersatzanspr\U+00fc
  3
che, abgeleitet\Pund gegen GEZE geltend gemacht werden. Die Zeichnung bleibt unser Eigentum und ist Dritten nur f\U+00fcr die Vertragsdauer zur\PBenutzung \U+00fcberlassen. S\U+00e4mtliche sich aus der Zeichnung ergebenden Anspr\U+00fcche stehen aus
  3
schlie\U+00dflich GEZE zu.\POhne vorherige Zustimmung von GEZE darf diese Zeichnung weder vervielf\U+00e4ltigt noch Dritten zug\U+00e4nglich gemacht werden.\PThis drawing shows the actual state of product development at the date of the drawing or th
  3
e revision date. No claims for\Pdamages in any form can be made against GEZE as a result of the interpretation of this drawing. This drawing remains the\Pproperty of GEZE and is made available to third parties only for the duration of contractural o
  1
bligations. All rights connected\Pwith this drawing remain in possession of GEZE. This drawing may not be copied or handed over to third parties without the\Pexpress consent of GEZE.
  7
CONVERTER_12
 73
     1
 44
0.84033613445378
  0
TEXT
  5
23F
330
8E
100
AcDbEntity
  8
0
 62
     3
100
AcDbText
 10
22.0
 20
51.0
 30
0.0
 40
1.798828
  1
A
 41
0.99
  7
CONVERTER_13
100
AcDbText
  0
TEXT
  5
240
330
8E
100
AcDbEntity
  8
0
 62
     3
100
AcDbText
 10
22.0
 20
93.0
 30
0.0
 40
1.798828
  1
B
 41
0.99
  7
CONVERTER_13
100
AcDbText
  0
TEXT
  5
241
330
8E
100
AcDbEntity
  8
0
 62
     3
100
AcDbText
 10
22.0
 20
138.0
 30
0.0
 40
1.798828
  1
C
 41
0.99
  7
CONVERTER_13
100
AcDbText
  0
TEXT
  5
242
330
8E
100
AcDbEntity
  8
0
 62
     3
100
AcDbText
 10
22.0
 20
183.0
 30
0.0
 40
1.798828
  1
D
 41
0.99
  7
CONVERTER_13
100
AcDbText
  0
TEXT
  5
243
330
8E
100
AcDbEntity
  8
0
 62
     3
100
AcDbText
 10
22.0
 20
228.0
 30
0.0
 40
1.798828
  1
E
 41
0.99
  7
CONVERTER_13
100
AcDbText
  0
TEXT
  5
244
330
8E
100
AcDbEntity
  8
0
 62
     3
100
AcDbText
 10
22.0
 20
278.0
 30
0.0
 40
1.798828
  1
F
 41
0.99
  7
CONVERTER_13
100
AcDbText
  0
TEXT
  5
245
330
8E
100
AcDbEntity
  8
0
 62
     3
100
AcDbText
 10
41.0
 20
303.0
 30
0.0
 40
1.798828
  1
8                            7                           6
 41
0.99
  7
CONVERTER_13
100
AcDbText
  0
TEXT
  5
246
330
8E
100
AcDbEntity
  8
0
 62
     3
100
AcDbText
 10
199.0
 20
303.0
 30
0.0
 40
1.798828
  1
5                         4                             3
 41
0.99
  7
CONVERTER_13
100
AcDbText
  0
TEXT
  5
247
330
8E
100
AcDbEntity
  8
0
 62
     3
100
AcDbText
 10
351.0
 20
303.0
 30
0.0
 40
1.798828
  1
2
 41
0.99
  7
CONVERTER_13
100
AcDbText
  0
TEXT
  5
248
330
8E
100
AcDbEntity
  8
0
 62
     3
100
AcDbText
 10
403.0
 20
303.0
 30
0.0
 40
1.798828
  1
1
 41
0.99
  7
CONVERTER_13
100
AcDbText
  0
MTEXT
  5
24A
330
8E
100
AcDbEntity
  8
0
 62
     3
100
AcDbMText
 10
324.0
 20
27.5
 30
0.0
 40
2.7
 41
0.0
 71
     5
 72
     1
  1
Frg. Prod./Rel. Prod
  7
CONVERTER_14
 73
     1
 44
0.90036014405762
  0
MTEXT
  5
24C
330
8E
100
AcDbEntity
  8
0
 62
     3
100
AcDbMText
 10
393.0000000000001
 20
68.30000000000001
 30
0.0
 40
1.8
 41
0.0
 71
     4
 72
     1
  1
DIN ISO 2768-mK
  7
CONVERTER_15
 73
     1
 44
0.78031212484994
  0
MTEXT
  5
24D
330
8E
100
AcDbEntity
  8
0
 62
     3
100
AcDbMText
 10
362.5
 20
30.23333329
 30
0.0
 40
2.7
 41
0.0
 71
     5
 72
     1
  1
RoHS Compliant
  7
CONVERTER_14
 73
     1
 44
0.90036014405762
  0
MTEXT
  5
24F
330
8E
100
AcDbEntity
  8
0
 62
     4
100
AcDbMText
 10
305.0
 20
66.037501125
 30
0.0
 40
2.0
 41
0.0
 71
     4
 72
     1
  1
 
  7
CONVERTER_16
 73
     1
 44
1.02040816326531
  0
MTEXT
  5
250
330
8E
100
AcDbEntity
  8
0
 62
     4
100
AcDbMText
 10
305.0
 20
70.11250337499999
 30
0.0
 40
2.0
 41
0.0
 71
     4
 72
     1
  1
 
  7
CONVERTER_16
 73
     1
 44
1.02040816326531
  0
MTEXT
  5
251
330
8E
100
AcDbEntity
  8
0
 62
     4
100
AcDbMText
 10
305.0
 20
78.26250787499998
 30
0.0
 40
2.0
 41
0.0
 71
     4
 72
     1
  1
 
  7
CONVERTER_16
 73
     1
 44
1.02040816326531
  0
MTEXT
  5
252
330
8E
100
AcDbEntity
  8
0
 62
     4
100
AcDbMText
 10
305.0
 20
74.187505625
 30
0.0
 40
2.0
 41
0.0
 71
     4
 72
     1
  1
 
  7
CONVERTER_16
 73
     1
 44
1.02040816326531
  0
MTEXT
  5
253
330
8E
100
AcDbEntity
  8
0
 62
     4
100
AcDbMText
 10
254.0
 20
66.5509709389485
 30
0.0
 40
2.0
 41
0.0
 71
     4
 72
     1
  1
 
  7
CONVERTER_16
 73
     1
 44
1.02040816326531
  0
MTEXT
  5
254
330
8E
100
AcDbEntity
  8
0
 62
     4
100
AcDbMText
 10
254.0
 20
69.5509709389485
 30
0.0
 40
2.5
 41
0.0
 71
     4
 72
     1
  1
 
  7
CONVERTER_16
 73
     1
 44
1.02040816326531
  0
MTEXT
  5
255
330
8E
100
AcDbEntity
  8
0
 62
     4
100
AcDbMText
 10
254.0
 20
74.5509709389485
 30
0.0
 40
2.0
 41
0.0
 71
     4
 72
     1
  1
EN AW-5005 H24 (EN485)
  7
CONVERTER_16
 73
     1
 44
1.02040816326531
  0
MTEXT
  5
256
330
8E
100
AcDbEntity
  8
0
 62
     4
100
AcDbMText
 10
254.0
 20
77.5509709389485
 30
0.0
 40
2.5
 41
0.0
 71
     4
 72
     1
  1
EN AW-AlMg1 H24
  7
CONVERTER_16
 73
     1
 44
1.02040816326531
  0
TEXT
  5
257
330
8E
100
AcDbEntity
  8
0
 62
     3
100
AcDbText
 10
254.9390836682591
 20
71.3930939948624
 30
0.0
 40
1.8
  1
oder / or
 41
0.72
  7
CONVERTER_15
100
AcDbText
  0
MTEXT
  5
258
330
8E
100
AcDbEntity
  8
0
 62
     4
100
AcDbMText
 10
254.2
 20
61.84990099999999
 30
0.0
 40
2.0
 41
0.0
 71
     5
 72
     1
  1
 
  7
CONVERTER_16
 73
     1
 44
1.02040816326531
  0
MTEXT
  5
259
330
8E
100
AcDbEntity
  8
0
 62
     4
100
AcDbMText
 10
254.2
 20
57.549913
 30
0.0
 40
2.0
 41
0.0
 71
     5
 72
     1
  1
 
  7
CONVERTER_16
 73
     1
 44
1.02040816326531
  0
MTEXT
  5
25A
330
8E
100
AcDbEntity
  8
0
 62
     4
100
AcDbMText
 10
254.2
 20
53.24992499999999
 30
0.0
 40
2.0
 41
0.0
 71
     5
 72
     1
  1
 
  7
CONVERTER_16
 73
     1
 44
1.02040816326531
  0
MTEXT
  5
25B
330
8E
100
AcDbEntity
  8
0
 62
     4
100
AcDbMText
 10
254.2
 20
48.94993700000001
 30
0.0
 40
2.0
 41
0.0
 71
     5
 72
     1
  1
 
  7
CONVERTER_16
 73
     1
 44
1.02040816326531
  0
MTEXT
  5
25C
330
8E
100
AcDbEntity
  8
0
 62
     4
100
AcDbMText
 10
254.2
 20
44.64994899999999
 30
0.0
 40
2.0
 41
0.0
 71
     5
 72
     1
  1
 
  7
CONVERTER_16
 73
     1
 44
1.02040816326531
  0
MTEXT
  5
25D
330
8E
100
AcDbEntity
  8
0
 62
     4
100
AcDbMText
 10
254.2
 20
40.34996100000001
 30
0.0
 40
2.0
 41
0.0
 71
     5
 72
     1
  1
 
  7
CONVERTER_16
 73
     1
 44
1.02040816326531
  0
MTEXT
  5
25E
330
8E
100
AcDbEntity
  8
0
 62
     4
100
AcDbMText
 10
254.2
 20
36.04997299999999
 30
0.0
 40
2.0
 41
0.0
 71
     5
 72
     1
  1
 
  7
CONVERTER_16
 73
     1
 44
1.02040816326531
  0
MTEXT
  5
25F
330
8E
100
AcDbEntity
  8
0
 62
     4
100
AcDbMText
 10
254.2
 20
31.74998500000001
 30
0.0
 40
2.0
 41
0.0
 71
     5
 72
     1
  1
 
  7
CONVERTER_16
 73
     1
 44
1.02040816326531
  0
MTEXT
  5
260
330
8E
100
AcDbEntity
  8
0
 62
     4
100
AcDbMText
 10
254.2
 20
27.449997
 30
0.0
 40
2.0
 41
0.0
 71
     5
 72
     1
  1
 
  7
CONVERTER_16
 73
     1
 44
1.02040816326531
  0
TEXT
  5
262
330
8E
100
AcDbEntity
  8
0
 62
     4
100
AcDbText
 10
300.027595719858
 20
48.14086505190309
 30
0.0
 40
2.5
  1
vertraulich / confidential
 41
0.765
  7
CONVERTER_17
100
AcDbText
  0
MTEXT
  5
263
330
8E
100
AcDbEntity
  8
0
 62
     7
100
AcDbMText
 10
254.6
 20
23.10462632711872
 30
0.0
 40
1.3
 41
0.0
 71
     8
 72
     1
  1
EMPB
  7
CONVERTER_15
 73
     1
 44
0.7202881152461
  0
MTEXT
  5
264
330
8E
100
AcDbEntity
  8
0
 62
     4
100
AcDbMText
 10
366.6227154136791
 20
43.5
 30
0.0
 40
3.5
 41
0.0
 71
     5
 72
     1
  1
1
  7
CONVERTER_11
 73
     1
 44
1.02040816326531
  0
MTEXT
  5
265
330
8E
100
AcDbEntity
  8
0
 62
     4
100
AcDbMText
 10
373.415803444324
 20
43.5
 30
0.0
 40
3.5
 41
0.0
 71
     5
 72
     1
  1
1
  7
CONVERTER_11
 73
     1
 44
1.02040816326531
  0
MTEXT
  5
266
330
8E
100
AcDbEntity
  8
0
 62
     1
100
AcDbMText
 10
402.0
 20
26.38551908572788
 30
0.0
 40
5.0
 41
0.0
 71
     5
 72
     1
  1
70710-2-0511
  7
CONVERTER_15
 73
     1
 44
1.02040816326531
  0
MTEXT
  5
268
330
8E
100
AcDbEntity
  8
0
 62
     1
100
AcDbMText
 10
387.0
 20
57.43923754384218
 30
0.0
 40
3.25
 41
0.0
 71
     5
 72
     1
  1
GC 342 Schutzabdeckung, links
  7
CONVERTER_18
 73
     1
 44
1.02040816326531
  0
MTEXT
  5
269
330
8E
100
AcDbEntity
  8
0
 62
     4
100
AcDbMText
 10
387.0
 20
50.5509709389485
 30
0.0
 40
3.25
 41
0.0
 71
     5
 72
     1
  1
GC 342 protective cover, left
  7
CONVERTER_18
 73
     1
 44
1.02040816326531
  0
MTEXT
  5
26A
330
8E
100
AcDbEntity
  8
0
 62
     3
100
AcDbMText
 10
344.5
 20
36.48816913070311
 30
0.0
 40
2.0
 41
0.0
 71
     5
 72
     1
  1
u961
  7
CONVERTER_16
 73
     1
 44
1.02040816326531
  0
MTEXT
  5
26B
330
8E
100
AcDbEntity
  8
0
 62
     3
100
AcDbMText
 10
333.4864610087965
 20
36.48816913070311
 30
0.0
 40
2.0
 41
0.0
 71
     5
 72
     1
  1
26.09.19
  7
CONVERTER_16
 73
     1
 44
1.02040816326531
  0
MTEXT
  5
26C
330
8E
100
AcDbEntity
  8
0
 62
     1
100
AcDbMText
 10
363.178703484217
 20
37.21125030740311
 30
0.0
 40
5.0
 41
0.0
 71
     5
 72
     1
  1
1:1
  7
CONVERTER_11
 73
     1
 44
1.02040816326531
  0
MTEXT
  5
26D
330
8E
100
AcDbEntity
  8
0
 62
     3
100
AcDbMText
 10
344.5
 20
40.81361521783839
 30
0.0
 40
2.0
 41
0.0
 71
     5
 72
     1
  1
u904
  7
CONVERTER_16
 73
     1
 44
1.02040816326531
  0
MTEXT
  5
26E
330
8E
100
AcDbEntity
  8
0
 62
     3
100
AcDbMText
 10
333.4864610087965
 20
40.81361521783839
 30
0.0
 40
2.0
 41
0.0
 71
     5
 72
     1
  1
05.02.19
  7
CONVERTER_16
 73
     1
 44
1.02040816326531
  0
MTEXT
  5
26F
330
8E
100
AcDbEntity
  8
0
 62
     7
100
AcDbMText
 10
261.2
 20
57.549913
 30
0.0
 40
2.0
 41
0.0
 71
     5
 72
     1
  1
 
  7
CONVERTER_11
 73
     1
 44
1.02040816326531
  0
MTEXT
  5
270
330
8E
100
AcDbEntity
  8
0
 62
     7
100
AcDbMText
 10
292.0
 20
57.549913
 30
0.0
 40
2.0
 41
0.0
 71
     5
 72
     1
  1
 
  7
CONVERTER_11
 73
     1
 44
1.02040816326531
  0
MTEXT
  5
271
330
8E
100
AcDbEntity
  8
0
 62
     7
100
AcDbMText
 10
292.0
 20
53.24992499999999
 30
0.0
 40
2.0
 41
0.0
 71
     5
 72
     1
  1
 
  7
CONVERTER_11
 73
     1
 44
1.02040816326531
  0
MTEXT
  5
272
330
8E
100
AcDbEntity
  8
0
 62
     7
100
AcDbMText
 10
292.0
 20
48.94993700000001
 30
0.0
 40
2.0
 41
0.0
 71
     5
 72
     1
  1
 
  7
CONVERTER_11
 73
     1
 44
1.02040816326531
  0
MTEXT
  5
273
330
8E
100
AcDbEntity
  8
0
 62
     7
100
AcDbMText
 10
292.0
 20
44.64994899999999
 30
0.0
 40
2.0
 41
0.0
 71
     5
 72
     1
  1
 
  7
CONVERTER_11
 73
     1
 44
1.02040816326531
  0
MTEXT
  5
274
330
8E
100
AcDbEntity
  8
0
 62
     7
100
AcDbMText
 10
280.8
 20
61.84990099999999
 30
0.0
 40
2.0
 41
0.0
 71
     5
 72
     1
  1
 
  7
CONVERTER_15
 73
     1
 44
1.02040816326531
  0
MTEXT
  5
275
330
8E
100
AcDbEntity
  8
0
 62
     7
100
AcDbMText
 10
280.8
 20
44.64994899999999
 30
0.0
 40
2.0
 41
0.0
 71
     5
 72
     1
  1
 
  7
CONVERTER_15
 73
     1
 44
1.02040816326531
  0
MTEXT
  5
276
330
8E
100
AcDbEntity
  8
0
 62
     7
100
AcDbMText
 10
280.8
 20
36.04997299999999
 30
0.0
 40
2.0
 41
0.0
 71
     5
 72
     1
  1
 
  7
CONVERTER_15
 73
     1
 44
1.02040816326531
  0
MTEXT
  5
277
330
8E
100
AcDbEntity
  8
0
 62
     7
100
AcDbMText
 10
280.8
 20
31.74998500000001
 30
0.0
 40
2.0
 41
0.0
 71
     5
 72
     1
  1
 
  7
CONVERTER_15
 73
     1
 44
1.02040816326531
  0
MTEXT
  5
278
330
8E
100
AcDbEntity
  8
0
 62
     7
100
AcDbMText
 10
271.0
 20
61.84990099999999
 30
0.0
 40
2.0
 41
0.0
 71
     5
 72
     1
  1
 
  7
CONVERTER_16
 73
     1
 44
1.02040816326531
  0
MTEXT
  5
279
330
8E
100
AcDbEntity
  8
0
 62
     7
100
AcDbMText
 10
271.0
 20
53.24992499999999
 30
0.0
 40
2.0
 41
0.0
 71
     5
 72
     1
  1
 
  7
CONVERTER_16
 73
     1
 44
1.02040816326531
  0
MTEXT
  5
27A
330
8E
100
AcDbEntity
  8
0
 62
     7
100
AcDbMText
 10
271.0
 20
48.94993700000001
 30
0.0
 40
2.0
 41
0.0
 71
     5
 72
     1
  1
 
  7
CONVERTER_16
 73
     1
 44
1.02040816326531
  0
MTEXT
  5
27B
330
8E
100
AcDbEntity
  8
0
 62
     7
100
AcDbMText
 10
271.0
 20
40.34996100000001
 30
0.0
 40
2.0
 41
0.0
 71
     5
 72
     1
  1
 
  7
CONVERTER_16
 73
     1
 44
1.02040816326531
  0
MTEXT
  5
27C
330
8E
100
AcDbEntity
  8
0
 62
     7
100
AcDbMText
 10
271.0
 20
31.74998500000001
 30
0.0
 40
2.0
 41
0.0
 71
     5
 72
     1
  1
 
  7
CONVERTER_16
 73
     1
 44
1.02040816326531
  0
MTEXT
  5
27D
330
8E
100
AcDbEntity
  8
0
 62
     7
100
AcDbMText
 10
292.0
 20
27.449997
 30
0.0
 40
2.0
 41
0.0
 71
     5
 72
     1
  1
2764
  7
CONVERTER_11
 73
     1
 44
1.02040816326531
  0
MTEXT
  5
27E
330
8E
100
AcDbEntity
  8
0
 62
     7
100
AcDbMText
 10
271.0
 20
36.04997299999999
 30
0.0
 40
2.0
 41
0.0
 71
     5
 72
     1
  1
 
  7
CONVERTER_16
 73
     1
 44
1.02040816326531
  0
MTEXT
  5
27F
330
8E
100
AcDbEntity
  8
0
 62
     7
100
AcDbMText
 10
292.0
 20
40.34996100000001
 30
0.0
 40
2.0
 41
0.0
 71
     5
 72
     1
  1
 
  7
CONVERTER_11
 73
     1
 44
1.02040816326531
  0
MTEXT
  5
280
330
8E
100
AcDbEntity
  8
0
 62
     7
100
AcDbMText
 10
280.8
 20
27.449997
 30
0.0
 40
2.0
 41
0.0
 71
     5
 72
     1
  1
u904
  7
CONVERTER_15
 73
     1
 44
1.02040816326531
  0
MTEXT
  5
281
330
8E
100
AcDbEntity
  8
0
 62
     7
100
AcDbMText
 10
271.0
 20
27.449997
 30
0.0
 40
2.0
 41
0.0
 71
     5
 72
     1
  1
05.02.19
  7
CONVERTER_16
 73
     1
 44
1.02040816326531
  0
MTEXT
  5
282
330
8E
100
AcDbEntity
  8
0
 62
     7
100
AcDbMText
 10
292.0
 20
31.74998500000001
 30
0.0
 40
2.0
 41
0.0
 71
     5
 72
     1
  1
 
  7
CONVERTER_11
 73
     1
 44
1.02040816326531
  0
MTEXT
  5
283
330
8E
100
AcDbEntity
  8
0
 62
     7
100
AcDbMText
 10
292.0
 20
36.04997299999999
 30
0.0
 40
2.0
 41
0.0
 71
     5
 72
     1
  1
 
  7
CONVERTER_11
 73
     1
 44
1.02040816326531
  0
MTEXT
  5
284
330
8E
100
AcDbEntity
  8
0
 62
     7
100
AcDbMText
 10
280.8
 20
40.34996100000001
 30
0.0
 40
2.0
 41
0.0
 71
     5
 72
     1
  1
 
  7
CONVERTER_15
 73
     1
 44
1.02040816326531
  0
MTEXT
  5
285
330
8E
100
AcDbEntity
  8
0
 62
     7
100
AcDbMText
 10
271.0
 20
44.64994899999999
 30
0.0
 40
2.0
 41
0.0
 71
     5
 72
     1
  1
 
  7
CONVERTER_16
 73
     1
 44
1.02040816326531
  0
MTEXT
  5
286
330
8E
100
AcDbEntity
  8
0
 62
     7
100
AcDbMText
 10
280.8
 20
48.94993700000001
 30
0.0
 40
2.0
 41
0.0
 71
     5
 72
     1
  1
 
  7
CONVERTER_15
 73
     1
 44
1.02040816326531
  0
MTEXT
  5
287
330
8E
100
AcDbEntity
  8
0
 62
     7
100
AcDbMText
 10
280.8
 20
53.24992499999999
 30
0.0
 40
2.0
 41
0.0
 71
     5
 72
     1
  1
 
  7
CONVERTER_15
 73
     1
 44
1.02040816326531
  0
MTEXT
  5
288
330
8E
100
AcDbEntity
  8
0
 62
     7
100
AcDbMText
 10
280.8
 20
57.549913
 30
0.0
 40
2.0
 41
0.0
 71
     5
 72
     1
  1
 
  7
CONVERTER_15
 73
     1
 44
1.02040816326531
  0
MTEXT
  5
289
330
8E
100
AcDbEntity
  8
0
 62
     7
100
AcDbMText
 10
292.0
 20
61.84990099999999
 30
0.0
 40
2.0
 41
0.0
 71
     5
 72
     1
  1
 
  7
CONVERTER_11
 73
     1
 44
1.02040816326531
  0
MTEXT
  5
28A
330
8E
100
AcDbEntity
  8
0
 62
     7
100
AcDbMText
 10
261.2
 20
61.84990099999999
 30
0.0
 40
2.0
 41
0.0
 71
     5
 72
     1
  1
 
  7
CONVERTER_11
 73
     1
 44
1.02040816326531
  0
MTEXT
  5
28B
330
8E
100
AcDbEntity
  8
0
 62
     7
100
AcDbMText
 10
271.0
 20
57.549913
 30
0.0
 40
2.0
 41
0.0
 71
     5
 72
     1
  1
 
  7
CONVERTER_16
 73
     1
 44
1.02040816326531
  0
MTEXT
  5
28C
330
8E
100
AcDbEntity
  8
0
 62
     7
100
AcDbMText
 10
261.2
 20
53.24992499999999
 30
0.0
 40
2.0
 41
0.0
 71
     5
 72
     1
  1
 
  7
CONVERTER_11
 73
     1
 44
1.02040816326531
  0
MTEXT
  5
28D
330
8E
100
AcDbEntity
  8
0
 62
     7
100
AcDbMText
 10
261.2
 20
48.94993700000001
 30
0.0
 40
2.0
 41
0.0
 71
     5
 72
     1
  1
 
  7
CONVERTER_11
 73
     1
 44
1.02040816326531
  0
MTEXT
  5
28E
330
8E
100
AcDbEntity
  8
0
 62
     7
100
AcDbMText
 10
261.2
 20
44.64994899999999
 30
0.0
 40
2.0
 41
0.0
 71
     5
 72
     1
  1
 
  7
CONVERTER_11
 73
     1
 44
1.02040816326531
  0
MTEXT
  5
28F
330
8E
100
AcDbEntity
  8
0
 62
     7
100
AcDbMText
 10
261.2
 20
40.34996100000001
 30
0.0
 40
2.0
 41
0.0
 71
     5
 72
     1
  1
 
  7
CONVERTER_11
 73
     1
 44
1.02040816326531
  0
MTEXT
  5
290
330
8E
100
AcDbEntity
  8
0
 62
     7
100
AcDbMText
 10
261.2
 20
36.04997299999999
 30
0.0
 40
2.0
 41
0.0
 71
     5
 72
     1
  1
 
  7
CONVERTER_11
 73
     1
 44
1.02040816326531
  0
MTEXT
  5
291
330
8E
100
AcDbEntity
  8
0
 62
     7
100
AcDbMText
 10
261.2
 20
31.74998500000001
 30
0.0
 40
2.0
 41
0.0
 71
     5
 72
     1
  1
 
  7
CONVERTER_11
 73
     1
 44
1.02040816326531
  0
MTEXT
  5
292
330
8E
100
AcDbEntity
  8
0
 62
     7
100
AcDbMText
 10
261.2
 20
27.449997
 30
0.0
 40
2.0
 41
0.0
 71
     5
 72
     1
  1
00
  7
CONVERTER_11
 73
     1
 44
1.02040816326531
  0
MTEXT
  5
293
330
8E
100
AcDbEntity
  8
0
 62
     4
100
AcDbMText
 10
370.19555741642
 20
43.5
 30
0.0
 40
5.0
 41
0.0
 71
     5
 72
     1
  1
/
  7
CONVERTER_11
 73
     1
 44
1.02040816326531
  0
MTEXT
  5
294
330
8E
100
AcDbEntity
  8
0
 62
     7
100
AcDbMText
 10
292.0
 20
23.36042929205311
 30
0.0
 40
1.3
 41
0.0
 71
     8
 72
     1
  1
Mitteilungs-Nr.
  7
CONVERTER_15
 73
     1
 44
0.7202881152461
  0
MTEXT
  5
295
330
8E
100
AcDbEntity
  8
0
 62
     7
100
AcDbMText
 10
292.0
 20
21.5604292920531
 30
0.0
 40
1.3
 41
0.0
 71
     8
 72
     1
  1
Doc. change no.
  7
CONVERTER_15
 73
     1
 44
0.7202881152461
  0
MTEXT
  5
296
330
8E
100
AcDbEntity
  8
0
 62
     7
100
AcDbMText
 10
280.5
 20
23.36042929205311
 30
0.0
 40
1.3
 41
0.0
 71
     8
 72
     1
  1
Name
  7
CONVERTER_15
 73
     1
 44
0.7202881152461
  0
MTEXT
  5
297
330
8E
100
AcDbEntity
  8
0
 62
     7
100
AcDbMText
 10
280.5
 20
21.5604292920531
 30
0.0
 40
1.3
 41
0.0
 71
     8
 72
     1
  1
name
  7
CONVERTER_15
 73
     1
 44
0.7202881152461
  0
MTEXT
  5
298
330
8E
100
AcDbEntity
  8
0
 62
     7
100
AcDbMText
 10
271.5
 20
23.36042929205311
 30
0.0
 40
1.3
 41
0.0
 71
     8
 72
     1
  1
Datum
  7
CONVERTER_15
 73
     1
 44
0.7202881152461
  0
MTEXT
  5
299
330
8E
100
AcDbEntity
  8
0
 62
     7
100
AcDbMText
 10
271.5
 20
21.5604292920531
 30
0.0
 40
1.3
 41
0.0
 71
     8
 72
     1
  1
date
  7
CONVERTER_15
 73
     1
 44
0.7202881152461
  0
MTEXT
  5
29B
330
8E
100
AcDbEntity
  8
0
 62
     7
100
AcDbMText
 10
261.2
 20
21.5604292920531
 30
0.0
 40
1.3
 41
0.0
 71
     8
 72
     1
  1
doc.version
  7
CONVERTER_19
 73
     1
 44
0.7202881152461
  0
MTEXT
  5
29C
330
8E
100
AcDbEntity
  8
0
 62
     7
100
AcDbMText
 10
261.2
 20
23.36042929205311
 30
0.0
 40
1.3
 41
0.0
 71
     8
 72
     1
  1
Dok.version
  7
CONVERTER_19
 73
     1
 44
0.7202881152461
  0
MTEXT
  5
29E
330
8E
100
AcDbEntity
  8
0
 62
     3
100
AcDbMText
 10
344.5
 20
43.69755601651619
 30
0.0
 40
1.8
 41
0.0
 71
     8
 72
     1
  1
Name
  7
CONVERTER_20
 73
     1
 44
0.90036014405762
  0
MTEXT
  5
29F
330
8E
100
AcDbEntity
  8
0
 62
     3
100
AcDbMText
 10
333.5
 20
43.69755601651619
 30
0.0
 40
1.8
 41
0.0
 71
     8
 72
     1
  1
Datum/date
  7
CONVERTER_20
 73
     1
 44
0.90036014405762
  0
MTEXT
  5
2A0
330
8E
100
AcDbEntity
  8
0
 62
     3
100
AcDbMText
 10
349.813338818047
 20
42.15431209089149
 30
0.0
 40
1.8
 41
0.0
 71
     7
 72
     1
  1
Blatt / von\Psheet / of
  7
CONVERTER_15
 73
     1
 44
0.84033613445378
  0
TEXT
  5
2A1
330
8E
100
AcDbEntity
  8
0
 62
     3
100
AcDbText
 10
340.7999570000001
 20
61.60000600000001
 30
0.0
 40
1.8
  1
Benennung / designation
 41
0.72
  7
CONVERTER_15
100
AcDbText
  0
MTEXT
  5
2A2
330
8E
100
AcDbEntity
  8
0
 62
     3
100
AcDbMText
 10
349.7149004192191
 20
35.36178824893369
 30
0.0
 40
1.8
 41
0.0
 71
     7
 72
     1
  1
Ma\U+00dfstab\Pscale
  7
CONVERTER_15
 73
     1
 44
0.84033613445378
  0
TEXT
  5
2A3
330
8E
100
AcDbEntity
  8
0
 62
     3
100
AcDbText
 10
377.0
 20
31.40000000000001
 30
0.0
 40
1.8
  1
Zeichnungs-Nr. / document-no.
 41
0.72
  7
CONVERTER_15
100
AcDbText
  0
MTEXT
  5
2A4
330
8E
100
AcDbEntity
  8
0
 62
     3
100
AcDbMText
 10
377.0
 20
41.90000000000001
 30
0.0
 40
1.8
 41
0.0
 71
     7
 72
     1
  1
Material-Nr.\PID-no.
  7
CONVERTER_15
 73
     1
 44
0.84033613445378
  0
MTEXT
  5
2A5
330
8E
100
AcDbEntity
  8
0
 62
     3
100
AcDbMText
 10
320.559613827201
 20
52.71687324398019
 30
0.0
 40
1.8
 41
0.0
 71
     7
 72
     1
  1
P.O. Box 13 63\P71226 Leonberg\PGermany
  7
CONVERTER_15
 73
     1
 44
0.78031212484994
  0
TEXT
  5
2A6
330
8E
100
AcDbEntity
  8
0
 62
     4
100
AcDbText
 10
320.559613827201
 20
60.4483504727545
 30
0.0
 40
2.2
  1
GEZE GmbH
 41
0.9
  7
CONVERTER_11
100
AcDbText
  0
MTEXT
  5
2A7
330
8E
100
AcDbEntity
  8
0
 62
     3
100
AcDbMText
 10
299.729180448858
 20
40.44999999999999
 30
0.0
 40
1.8
 41
0.0
 71
     4
 72
     1
  1
erstellt / drawn
  7
CONVERTER_15
 73
     1
 44
0.90036014405762
  0
MTEXT
  5
2A8
330
8E
100
AcDbEntity
  8
0
 62
     3
100
AcDbMText
 10
299.729180448858
 20
36.15000000000001
 30
0.0
 40
1.8
 41
0.0
 71
     4
 72
     1
  1
Frg. Prod./Rel. Prod
  7
CONVERTER_18
 73
     1
 44
0.90036014405762
  0
MTEXT
  5
2A9
330
8E
100
AcDbEntity
  8
0
 62
     3
100
AcDbMText
 10
393.0000000000001
 20
79.02387325378723
 30
0.0
 40
1.8
 41
0.0
 71
     7
 72
     1
  1
Ma\U+00dfe ohne Toleranzangabe nach
  7
CONVERTER_15
 73
     1
 44
0.78031212484994
  0
MTEXT
  5
2AA
330
8E
100
AcDbEntity
  8
0
 62
     3
100
AcDbMText
 10
304.299957
 20
80.30000899999999
 30
0.0
 40
1.8
 41
0.0
 71
     7
 72
     1
  1
Oberfl\U+00e4chenbehandlung\Porder of surface treatment
  7
CONVERTER_15
 73
     1
 44
0.78031212484994
  0
MTEXT
  5
2AB
330
8E
100
AcDbEntity
  8
0
 62
     3
100
AcDbMText
 10
348.299957
 20
80.30000899999999
 30
0.0
 40
1.8
 41
0.0
 71
     7
 72
     1
  1
W\U+00e4rmebehandlung\Porder of heat treatment
  7
CONVERTER_15
 73
     1
 44
0.78031212484994
  0
MTEXT
  5
2AC
330
8E
100
AcDbEntity
  8
0
 62
     3
100
AcDbMText
 10
393.0000000000001
 20
73.7721851298144
 30
0.0
 40
1.8
 41
0.0
 71
     7
 72
     1
  1
Dimensions without individual\Ptolerance indication acc.
  7
CONVERTER_15
 73
     1
 44
0.78031212484994
  0
TEXT
  5
2AD
330
8E
100
AcDbEntity
  8
0
 62
     3
100
AcDbText
 10
253.299957
 20
82.50000899999999
 30
0.0
 40
1.8
  1
Werkstoff / material
 41
0.72
  7
CONVERTER_15
100
AcDbText
  0
TEXT
  5
2AE
330
8E
100
AcDbEntity
  8
0
 62
     3
100
AcDbText
 10
393.0000000000001
 20
82.60942509235379
 30
0.0
 40
1.8
  1
ISO 8015     Size ISO 14405
 41
0.72
  7
CONVERTER_15
100
AcDbText
  0
MTEXT
  5
2AF
330
8E
100
AcDbEntity
  8
0
 62
     4
100
AcDbMText
 10
349.0
 20
78.26250787499998
 30
0.0
 40
2.0
 41
0.0
 71
     4
 72
     1
  1
 
  7
CONVERTER_16
 73
     1
 44
1.02040816326531
  0
MTEXT
  5
2B0
330
8E
100
AcDbEntity
  8
0
 62
     4
100
AcDbMText
 10
349.0
 20
74.187505625
 30
0.0
 40
2.0
 41
0.0
 71
     4
 72
     1
  1
 
  7
CONVERTER_16
 73
     1
 44
1.02040816326531
  0
MTEXT
  5
2B1
330
8E
100
AcDbEntity
  8
0
 62
     4
100
AcDbMText
 10
349.0
 20
70.11250337499999
 30
0.0
 40
2.0
 41
0.0
 71
     4
 72
     1
  1
 
  7
CONVERTER_16
 73
     1
 44
1.02040816326531
  0
MTEXT
  5
2B2
330
8E
100
AcDbEntity
  8
0
 62
     4
100
AcDbMText
 10
349.0
 20
66.037501125
 30
0.0
 40
2.0
 41
0.0
 71
     4
 72
     1
  1
 
  7
CONVERTER_16
 73
     1
 44
1.02040816326531
  0
MTEXT
  5
2B3
330
8E
100
AcDbEntity
  8
1
 62
     7
100
AcDbMText
 10
213.6065652060321
 20
23.65013582503021
 30
0.0
 40
2.0
 41
0.0
 71
     5
 72
     1
  1
EMPB = Erstmusterpr\U+00fcfbericht /Initial sample test report
  7
CONVERTER_17
 73
     1
 44
1.02040816326531
  0
MTEXT
  5
2B4
330
8E
100
AcDbEntity
  8
1
 62
     7
100
AcDbMText
 10
201.2564815150212
 20
30.50021951604111
 30
0.0
 40
2.0
 41
0.0
 71
     5
 72
     1
  1
Papierausdrucke dieser Zeichnung unterliegen nicht dem \U+00c4nderungsdienst!\PPrinted drawings are not revision controlled! 
  7
CONVERTER_17
 73
     1
 44
1.02040816326531
  0
ENDBLK
  5
91
330
8E
100
AcDbEntity
  8
0
100
AcDbBlockEnd
  0
BLOCK
  5
94
330
92
100
AcDbEntity
  8
0
100
AcDbBlockBegin
  2
Rahmen
 70
     0
 10
215.5
 20
153.5
 30
0.0
  3
Rahmen
  1
Rahmen
  0
INSERT
  5
93
330
92
100
AcDbEntity
  8
1
100
AcDbBlockReference
  2
a3_gr
 10
21.0
 20
21.0
 30
0.0
  0
ENDBLK
  5
95
330
92
100
AcDbEntity
  8
0
100
AcDbBlockEnd
  0
BLOCK
  5
9C
330
96
100
AcDbEntity
  8
0
100
AcDbBlockBegin
  2
1
 70
     0
 10
0.0
 20
0.0
 30
0.0
  3
1
  1
1
  0
INSERT
  5
97
330
96
100
AcDbEntity
  8
0
100
AcDbBlockReference
  2
AllgA
 10
97.000568
 20
77.99636
 30
0.0
 41
0.5
 42
0.5
 43
0.5
  0
INSERT
  5
98
330
96
100
AcDbEntity
  8
0
100
AcDbBlockReference
  2
Tabelle
 10
294.0
 20
101.1999958283321
 30
0.0
  0
INSERT
  5
99
330
96
100
AcDbEntity
  8
0
100
AcDbBlockReference
  2
SA_RechtsA
 10
109.5059870000002
 20
198.0000000000004
 30
0.0
  0
INSERT
  5
9A
330
96
100
AcDbEntity
  8
0
100
AcDbBlockReference
  2
VordansA
 10
292.7539949999998
 20
197.9999999999997
 30
0.0
  0
INSERT
  5
9B
330
96
100
AcDbEntity
  8
1
100
AcDbBlockReference
  2
Rahmen
 10
215.5
 20
153.5
 30
0.0
  0
ENDBLK
  5
9D
330
96
100
AcDbEntity
  8
0
100
AcDbBlockEnd
  0
BLOCK
  5
155
330
14E
100
AcDbEntity
  8
0
100
AcDbBlockBegin
  2
*D12
 70
     1
 10
0.0
 20
0.0
 30
0.0
  3
*D12
  1
*D12
  0
LINE
  5
14F
330
14E
100
AcDbEntity
  8
1
  6
Continuous
 62
     3
100
AcDbLine
 10
98.74369466123638
 20
251.439935230676
 30
0.0
 11
132.0979936833947
 21
251.439935230676
 31
0.0
  0
LINE
  5
150
330
14E
100
AcDbEntity
  8
1
  6
Continuous
 62
     3
100
AcDbLine
 10
132.0979936833947
 20
240.7220180185293
 30
0.0
 11
132.0979936833947
 21
253.439935230676
 31
0.0
  0
LINE
  5
151
330
14E
100
AcDbEntity
  8
1
  6
Continuous
 62
     3
100
AcDbLine
 10
98.74369466123638
 20
241.6283208583988
 30
0.0
 11
98.74369466123638
 21
253.439935230676
 31
0.0
  0
SOLID
  5
152
330
14E
100
AcDbEntity
  8
1
 62
     3
100
AcDbTrace
 10
102.2436946612364
 20
251.9007189722319
 30
0.0
 11
102.2436946612364
 21
250.9791514891201
 31
0.0
 12
98.74369466123638
 22
251.439935230676
 32
0.0
 13
98.74369466123638
 23
251.439935230676
 33
0.0
  0
SOLID
  5
153
330
14E
100
AcDbEntity
  8
1
 62
     3
100
AcDbTrace
 10
128.5979936833947
 20
250.9791514891201
 30
0.0
 11
128.5979936833947
 21
251.9007189722319
 31
0.0
 12
132.0979936833947
 22
251.439935230676
 32
0.0
 13
132.0979936833947
 23
251.439935230676
 33
0.0
  0
MTEXT
  5
154
330
14E
100
AcDbEntity
  8
1
 62
     4
100
AcDbMText
 10
107.527501819143
 20
253.439935230676
 30
0.0
 40
3.5
 41
0.0
 71
     7
 72
     1
  1
\C4;33.4\C3;\H2.5;{\Fgdt;`}0.5
  7
CONVERTER_11
 11
0.9999999999970619
 21
2.424068405545306E-6
 31
0.0
 73
     1
 44
0.60024009603842
  0
ENDBLK
  5
156
330
14E
100
AcDbEntity
  8
0
100
AcDbBlockEnd
  0
BLOCK
  5
160
330
159
100
AcDbEntity
  8
0
100
AcDbBlockBegin
  2
*D13
 70
     1
 10
0.0
 20
0.0
 30
0.0
  3
*D13
  1
*D13
  0
LINE
  5
15A
330
159
100
AcDbEntity
  8
1
  6
Continuous
 62
     3
100
AcDbLine
 10
146.045084486197
 20
242.7207996725675
 30
0.0
 11
146.045084486197
 21
153.2779985640904
 31
0.0
  0
LINE
  5
15B
330
159
100
AcDbEntity
  8
1
  6
Continuous
 62
     3
100
AcDbLine
 10
124.0495713526358
 20
153.2779985640904
 30
0.0
 11
148.045084486197
 21
153.2779985640904
 31
0.0
  0
LINE
  5
15C
330
159
100
AcDbEntity
  8
1
  6
Continuous
 62
     3
100
AcDbLine
 10
130.0281946899897
 20
242.7207996725675
 30
0.0
 11
148.045084486197
 21
242.7207996725675
 31
0.0
  0
SOLID
  5
15D
330
159
100
AcDbEntity
  8
1
 62
     3
100
AcDbTrace
 10
146.5058682277529
 20
239.2207996725675
 30
0.0
 11
145.5843007446411
 21
239.2207996725675
 31
0.0
 12
146.045084486197
 22
242.7207996725675
 32
0.0
 13
146.045084486197
 23
242.7207996725675
 33
0.0
  0
SOLID
  5
15E
330
159
100
AcDbEntity
  8
1
 62
     3
100
AcDbTrace
 10
145.5843007446411
 20
156.7779985640904
 30
0.0
 11
146.5058682277529
 21
156.7779985640904
 31
0.0
 12
146.045084486197
 22
153.2779985640904
 32
0.0
 13
146.045084486197
 23
153.2779985640904
 33
0.0
  0
MTEXT
  5
15F
330
159
100
AcDbEntity
  8
1
 62
     4
100
AcDbMText
 10
144.045084486197
 20
190.81133956837
 30
0.0
 40
3.5
 41
0.0
 71
     7
 72
     1
  1
\C4;89.4\C3;\H2.5;{\Fgdt;`}1
  7
CONVERTER_11
 11
0.0
 21
1.0
 31
0.0
 73
     1
 44
0.60024009603842
  0
ENDBLK
  5
161
330
159
100
AcDbEntity
  8
0
100
AcDbBlockEnd
  0
BLOCK
  5
16D
330
164
100
AcDbEntity
  8
0
100
AcDbBlockBegin
  2
*D14
 70
     1
 10
0.0
 20
0.0
 30
0.0
  3
*D14
  1
*D14
  0
LINE
  5
165
330
164
100
AcDbEntity
  8
1
  6
Continuous
 62
     3
100
AcDbLine
 10
129.0495713526357
 20
158.2779985640904
 30
0.0
 11
129.049571352635
 21
141.0068585883512
 31
0.0
  0
LINE
  5
166
330
164
100
AcDbEntity
  8
1
  6
Continuous
 62
     3
100
AcDbLine
 10
86.9139810796314
 20
157.4555350153652
 30
0.0
 11
85.03482844266537
 21
144.0846692385587
 31
0.0
  0
LINE
  5
167
330
164
100
AcDbEntity
  8
1
  6
Continuous
 62
     3
100
AcDbLine
 10
129.049571352635
 20
141.0068585883512
 30
0.0
 11
129.049571352635
 21
139.0068585883512
 31
0.0
  0
LINE
  5
168
330
164
100
AcDbEntity
  8
1
  6
Continuous
 62
     3
100
AcDbLine
 10
85.03482844266537
 20
144.0846692385587
 30
0.0
 11
84.75648224074524
 21
142.1041331010755
 31
0.0
  0
ARC
  5
169
330
164
100
AcDbEntity
  8
1
  6
Continuous
 62
     3
100
AcDbCircle
 10
129.0495713526357
 20
457.2658382786864
 30
0.0
 40
316.2589796903351
100
AcDbArc
 50
262.0
 51
269.9999999999998
  0
SOLID
  5
16A
330
164
100
AcDbEntity
  8
1
 62
     3
100
AcDbTrace
 10
88.56501180674206
 20
144.0733965956389
 30
0.0
 11
88.44180615088678
 21
143.1601020143048
 31
0.0
 12
85.03482844266537
 22
144.0846692385587
 32
0.0
 13
85.03482844266537
 23
144.0846692385587
 33
0.0
  0
SOLID
  5
16B
330
164
100
AcDbEntity
  8
1
 62
     3
100
AcDbTrace
 10
125.5470752296235
 20
140.5654488413225
 30
0.0
 11
125.552174641716
 21
141.4870022157535
 31
0.0
 12
129.049571352635
 22
141.0068585883512
 32
0.0
 13
129.049571352635
 23
141.0068585883512
 33
0.0
  0
MTEXT
  5
16C
330
164
100
AcDbEntity
  8
1
 62
     4
100
AcDbMText
 10
105.941910508946
 20
143.8493135845607
 30
0.0
 40
3.5
 41
0.0
 71
     7
 72
     1
  1
8{\Fgdt;~}
  7
CONVERTER_11
 11
0.997799248674184
 21
-0.06630730989290738
 31
0.0
 73
     1
 44
0.60024009603842
  0
ENDBLK
  5
16E
330
164
100
AcDbEntity
  8
0
100
AcDbBlockEnd
  0
BLOCK
  5
1C5
330
1BE
100
AcDbEntity
  8
0
100
AcDbBlockBegin
  2
*D15
 70
     1
 10
0.0
 20
0.0
 30
0.0
  3
*D15
  1
*D15
  0
LINE
  5
1BF
330
1BE
100
AcDbEntity
  8
1
  6
Continuous
 62
     3
100
AcDbLine
 10
196.1039949761777
 20
252.677386815324
 30
0.0
 11
389.403994976178
 21
252.677386815324
 31
0.0
  0
LINE
  5
1C0
330
1BE
100
AcDbEntity
  8
1
  6
Continuous
 62
     3
100
AcDbLine
 10
389.403994976178
 20
242.6859001758643
 30
0.0
 11
389.403994976178
 21
254.677386815324
 31
0.0
  0
LINE
  5
1C1
330
1BE
100
AcDbEntity
  8
1
  6
Continuous
 62
     3
100
AcDbLine
 10
196.1039949761777
 20
242.5463021890543
 30
0.0
 11
196.1039949761777
 21
254.677386815324
 31
0.0
  0
SOLID
  5
1C2
330
1BE
100
AcDbEntity
  8
1
 62
     3
100
AcDbTrace
 10
199.6039949761777
 20
253.1381705568799
 30
0.0
 11
199.6039949761777
 21
252.2166030737681
 31
0.0
 12
196.1039949761777
 22
252.677386815324
 32
0.0
 13
196.1039949761777
 23
252.677386815324
 33
0.0
  0
SOLID
  5
1C3
330
1BE
100
AcDbEntity
  8
1
 62
     3
100
AcDbTrace
 10
385.903994976178
 20
252.2166030737681
 30
0.0
 11
385.903994976178
 21
253.1381705568799
 31
0.0
 12
389.403994976178
 22
252.677386815324
 32
0.0
 13
389.403994976178
 23
252.677386815324
 33
0.0
  0
MTEXT
  5
1C4
330
1BE
100
AcDbEntity
  8
1
 62
     4
100
AcDbMText
 10
283.498539496477
 20
254.677386815324
 30
0.0
 40
3.5
 41
0.0
 71
     7
 72
     1
  1
193.3
  7
CONVERTER_11
 11
0.9999999999970619
 21
2.424068405545306E-6
 31
0.0
 73
     1
 44
0.60024009603842
  0
ENDBLK
  5
1C6
330
1BE
100
AcDbEntity
  8
0
100
AcDbBlockEnd
  0
ENDSEC
  0
SECTION
  2
ENTITIES
  0
INSERT
  5
9E
330
1F
100
AcDbEntity
  8
1
100
AcDbBlockReference
  2
1
 10
0.0
 20
0.0
 30
0.0
  0
ENDSEC
  0
SECTION
  2
OBJECTS
  0
DICTIONARY
  5
C
330
0
100
AcDbDictionary
281
     1
  3
ACAD_DETAILVIEWSTYLE
350
2F0
  3
ACAD_GROUP
350
D
  3
ACAD_LAYOUT
350
1A
  3
ACAD_MATERIAL
350
43
  3
ACAD_MLEADERSTYLE
350
2EF
  3
ACAD_MLINESTYLE
350
17
  3
ACAD_PLOTSETTINGS
350
19
  3
ACAD_PLOTSTYLENAME
350
E
  3
ACAD_SCALELIST
350
47
  3
ACAD_SECTIONVIEWSTYLE
350
2F1
  3
ACAD_TABLESTYLE
350
2EE
  3
ACAD_VISUALSTYLE
350
2A
  3
AcDbVariableDictionary
350
2B5
  0
DICTIONARY
  5
2F0
102
{ACAD_REACTORS
330
C
102
}
330
C
100
AcDbDictionary
281
     1
  0
DICTIONARY
  5
D
102
{ACAD_REACTORS
330
C
102
}
330
C
100
AcDbDictionary
281
     1
  0
DICTIONARY
  5
1A
102
{ACAD_REACTORS
330
C
102
}
330
C
100
AcDbDictionary
281
     1
  3
Layout1
350
1E
  3
Layout2
350
26
  3
Model
350
22
  0
DICTIONARY
  5
43
102
{ACAD_REACTORS
330
C
102
}
330
C
100
AcDbDictionary
281
     1
  3
ByBlock
350
45
  3
ByLayer
350
44
  3
Global
350
46
  0
DICTIONARY
  5
2EF
102
{ACAD_REACTORS
330
C
102
}
330
C
100
AcDbDictionary
281
     1
  0
DICTIONARY
  5
17
102
{ACAD_REACTORS
330
C
102
}
330
C
100
AcDbDictionary
281
     1
  3
Standard
350
18
  0
DICTIONARY
  5
19
102
{ACAD_REACTORS
330
C
102
}
330
C
100
AcDbDictionary
281
     1
  0
ACDBDICTIONARYWDFLT
  5
E
102
{ACAD_REACTORS
330
C
102
}
330
C
100
AcDbDictionary
281
     1
  3
Normal
350
F
100
AcDbDictionaryWithDefault
340
F
  0
DICTIONARY
  5
47
102
{ACAD_REACTORS
330
C
102
}
330
C
100
AcDbDictionary
281
     1
  3
A0
350
48
  3
A1
350
49
  3
A2
350
4A
  3
A3
350
4B
  3
A4
350
4C
  3
A5
350
4D
  3
A6
350
4E
  3
A7
350
4F
  3
A8
350
50
  3
A9
350
51
  3
B0
350
52
  3
B1
350
53
  3
B2
350
54
  3
B3
350
55
  3
B4
350
56
  3
B5
350
57
  3
B6
350
58
  3
B7
350
59
  3
B8
350
5A
  3
B9
350
5B
  3
C0
350
5C
  3
C1
350
5D
  3
C2
350
5E
  3
C3
350
5F
  3
C4
350
60
  3
C5
350
61
  3
C6
350
62
  3
C7
350
63
  3
C8
350
64
  3
C9
350
65
  3
D0
350
66
  3
D1
350
67
  3
D2
350
68
  0
DICTIONARY
  5
2F1
102
{ACAD_REACTORS
330
C
102
}
330
C
100
AcDbDictionary
281
     1
  0
DICTIONARY
  5
2EE
102
{ACAD_REACTORS
330
C
102
}
330
C
100
AcDbDictionary
281
     1
  0
DICTIONARY
  5
2A
102
{ACAD_REACTORS
330
C
102
}
330
C
100
AcDbDictionary
281
     1
  3
2dWireframe
350
2F
  3
Basic
350
32
  3
Brighten
350
36
  3
ColorChange
350
3A
  3
Conceptual
350
34
  3
Dim
350
35
  3
EdgeColorOff
350
3D
  3
Facepattern
350
39
  3
Flat
350
2B
  3
FlatWithEdges
350
2C
  3
Gouraud
350
2D
  3
GouraudWithEdges
350
2E
  3
Hidden
350
31
  3
JitterOff
350
3B
  3
Linepattern
350
38
  3
OverhangOff
350
3C
  3
Realistic
350
33
  3
Shaded
350
42
  3
Shaded with edges
350
41
  3
Shades of Gray
350
3E
  3
Sketchy
350
3F
  3
Thicken
350
37
  3
Wireframe
350
30
  3
X-Ray
350
40
  0
DICTIONARY
  5
2B5
102
{ACAD_REACTORS
330
C
102
}
330
C
100
AcDbDictionary
281
     1
  3
CANNOSCALE
350
2B6
  3
MSLTSCALE
350
2B7
  0
LAYOUT
  5
1E
102
{ACAD_REACTORS
330
1A
102
}
330
1A
100
AcDbPlotSettings
  1

  2
none_device
  4

  6

 40
0.0
 41
0.0
 42
0.0
 43
0.0
 44
0.0
 45
0.0
 46
0.0
 47
0.0
 48
0.0
 49
0.0
140
0.0
141
0.0
142
1.0
143
1.0
 70
   688
 72
     0
 73
     0
 74
     5
  7

 75
    16
 76
     0
 77
     2
 78
   300
147
1.0
148
0.0
149
0.0
100
AcDbLayout
  1
Layout1
 70
     1
 71
     1
 10
0.0
 20
0.0
 11
12.0
 21
9.0
 12
0.0
 22
0.0
 32
0.0
 14
1.00000000000000E+20
 24
1.00000000000000E+20
 34
1.00000000000000E+20
 15
-1.00000000000000E+20
 25
-1.00000000000000E+20
 35
-1.00000000000000E+20
146
0.0
 13
0.0
 23
0.0
 33
0.0
 16
1.0
 26
0.0
 36
0.0
 17
0.0
 27
1.0
 37
0.0
 76
     0
330
1B
  0
LAYOUT
  5
26
102
{ACAD_REACTORS
330
1A
102
}
330
1A
100
AcDbPlotSettings
  1

  2
none_device
  4

  6

 40
0.0
 41
0.0
 42
0.0
 43
0.0
 44
0.0
 45
0.0
 46
0.0
 47
0.0
 48
0.0
 49
0.0
140
0.0
141
0.0
142
1.0
143
1.0
 70
   688
 72
     0
 73
     0
 74
     5
  7

 75
    16
 76
     0
 77
     2
 78
   300
147
1.0
148
0.0
149
0.0
100
AcDbLayout
  1
Layout2
 70
     1
 71
     2
 10
0.0
 20
0.0
 11
0.0
 21
0.0
 12
0.0
 22
0.0
 32
0.0
 14
0.0
 24
0.0
 34
0.0
 15
0.0
 25
0.0
 35
0.0
146
0.0
 13
0.0
 23
0.0
 33
0.0
 16
1.0
 26
0.0
 36
0.0
 17
0.0
 27
1.0
 37
0.0
 76
     0
330
23
  0
LAYOUT
  5
22
102
{ACAD_REACTORS
330
1A
102
}
330
1A
100
AcDbPlotSettings
  1

  2
none_device
  4
Letter_(8.50_x_11.00_Inches)
  6

 40
6.35
 41
6.35
 42
6.35000508
 43
6.35000508
 44
215.9
 45
279.4
 46
0.0
 47
0.0
 48
0.0
 49
0.0
140
0.0
141
0.0
142
1.0
143
1.0
 70
  1712
 72
     0
 73
     0
 74
     0
  7

 75
     0
 76
     0
 77
     2
 78
   300
147
1.0
148
0.0
149
0.0
100
AcDbLayout
  1
Model
 70
     1
 71
     0
 10
0.0
 20
0.0
 11
12.0
 21
9.0
 12
0.0
 22
0.0
 32
0.0
 14
21.0
 24
21.0
 34
0.0
 15
431.0
 25
307.0
 35
0.0
146
0.0
 13
0.0
 23
0.0
 33
0.0
 16
1.0
 26
0.0
 36
0.0
 17
0.0
 27
1.0
 37
0.0
 76
     0
330
1F
331
29
  0
MATERIAL
  5
45
102
{ACAD_REACTORS
330
43
102
}
102
{ACAD_XDICTIONARY
360
2EA
102
}
330
43
100
AcDbMaterial
  1
ByBlock
  0
MATERIAL
  5
44
102
{ACAD_REACTORS
330
43
102
}
102
{ACAD_XDICTIONARY
360
2E8
102
}
330
43
100
AcDbMaterial
  1
ByLayer
  0
MATERIAL
  5
46
102
{ACAD_REACTORS
330
43
102
}
102
{ACAD_XDICTIONARY
360
2EC
102
}
330
43
100
AcDbMaterial
  1
Global
  0
MLINESTYLE
  5
18
102
{ACAD_REACTORS
330
17
102
}
330
17
100
AcDbMlineStyle
  2
Standard
 70
     0
  3

 62
   256
 51
90.0
 52
90.0
 71
     2
 49
0.5
 62
   256
  6
BYLAYER
 49
-0.5
 62
   256
  6
BYLAYER
  0
ACDBPLACEHOLDER
  5
F
102
{ACAD_REACTORS
330
E
102
}
330
E
  0
SCALE
  5
48
102
{ACAD_REACTORS
330
47
102
}
330
47
100
AcDbScale
 70
     0
300
1:1
140
1.0
141
1.0
290
     1
  0
SCALE
  5
49
102
{ACAD_REACTORS
330
47
102
}
330
47
100
AcDbScale
 70
     0
300
1:2
140
1.0
141
2.0
290
     0
  0
SCALE
  5
4A
102
{ACAD_REACTORS
330
47
102
}
330
47
100
AcDbScale
 70
     0
300
1:4
140
1.0
141
4.0
290
     0
  0
SCALE
  5
4B
102
{ACAD_REACTORS
330
47
102
}
330
47
100
AcDbScale
 70
     0
300
1:5
140
1.0
141
5.0
290
     0
  0
SCALE
  5
4C
102
{ACAD_REACTORS
330
47
102
}
330
47
100
AcDbScale
 70
     0
300
1:8
140
1.0
141
8.0
290
     0
  0
SCALE
  5
4D
102
{ACAD_REACTORS
330
47
102
}
330
47
100
AcDbScale
 70
     0
300
1:10
140
1.0
141
10.0
290
     0
  0
SCALE
  5
4E
102
{ACAD_REACTORS
330
47
102
}
330
47
100
AcDbScale
 70
     0
300
1:16
140
1.0
141
16.0
290
     0
  0
SCALE
  5
4F
102
{ACAD_REACTORS
330
47
102
}
330
47
100
AcDbScale
 70
     0
300
1:20
140
1.0
141
20.0
290
     0
  0
SCALE
  5
50
102
{ACAD_REACTORS
330
47
102
}
330
47
100
AcDbScale
 70
     0
300
1:30
140
1.0
141
30.0
290
     0
  0
SCALE
  5
51
102
{ACAD_REACTORS
330
47
102
}
330
47
100
AcDbScale
 70
     0
300
1:40
140
1.0
141
40.0
290
     0
  0
SCALE
  5
52
102
{ACAD_REACTORS
330
47
102
}
330
47
100
AcDbScale
 70
     0
300
1:50
140
1.0
141
50.0
290
     0
  0
SCALE
  5
53
102
{ACAD_REACTORS
330
47
102
}
330
47
100
AcDbScale
 70
     0
300
1:100
140
1.0
141
100.0
290
     0
  0
SCALE
  5
54
102
{ACAD_REACTORS
330
47
102
}
330
47
100
AcDbScale
 70
     0
300
2:1
140
2.0
141
1.0
290
     0
  0
SCALE
  5
55
102
{ACAD_REACTORS
330
47
102
}
330
47
100
AcDbScale
 70
     0
300
4:1
140
4.0
141
1.0
290
     0
  0
SCALE
  5
56
102
{ACAD_REACTORS
330
47
102
}
330
47
100
AcDbScale
 70
     0
300
8:1
140
8.0
141
1.0
290
     0
  0
SCALE
  5
57
102
{ACAD_REACTORS
330
47
102
}
330
47
100
AcDbScale
 70
     0
300
10:1
140
10.0
141
1.0
290
     0
  0
SCALE
  5
58
102
{ACAD_REACTORS
330
47
102
}
330
47
100
AcDbScale
 70
     0
300
100:1
140
100.0
141
1.0
290
     0
  0
SCALE
  5
59
102
{ACAD_REACTORS
330
47
102
}
330
47
100
AcDbScale
 70
     0
300
1/128" = 1'-0"
140
0.0078125
141
12.0
290
     0
  0
SCALE
  5
5A
102
{ACAD_REACTORS
330
47
102
}
330
47
100
AcDbScale
 70
     0
300
1/64" = 1'-0"
140
0.015625
141
12.0
290
     0
  0
SCALE
  5
5B
102
{ACAD_REACTORS
330
47
102
}
330
47
100
AcDbScale
 70
     0
300
1/32" = 1'-0"
140
0.03125
141
12.0
290
     0
  0
SCALE
  5
5C
102
{ACAD_REACTORS
330
47
102
}
330
47
100
AcDbScale
 70
     0
300
1/16" = 1'-0"
140
0.0625
141
12.0
290
     0
  0
SCALE
  5
5D
102
{ACAD_REACTORS
330
47
102
}
330
47
100
AcDbScale
 70
     0
300
3/32" = 1'-0"
140
0.09375
141
12.0
290
     0
  0
SCALE
  5
5E
102
{ACAD_REACTORS
330
47
102
}
330
47
100
AcDbScale
 70
     0
300
1/8" = 1'-0"
140
0.125
141
12.0
290
     0
  0
SCALE
  5
5F
102
{ACAD_REACTORS
330
47
102
}
330
47
100
AcDbScale
 70
     0
300
3/16" = 1'-0"
140
0.1875
141
12.0
290
     0
  0
SCALE
  5
60
102
{ACAD_REACTORS
330
47
102
}
330
47
100
AcDbScale
 70
     0
300
1/4" = 1'-0"
140
0.25
141
12.0
290
     0
  0
SCALE
  5
61
102
{ACAD_REACTORS
330
47
102
}
330
47
100
AcDbScale
 70
     0
300
3/8" = 1'-0"
140
0.375
141
12.0
290
     0
  0
SCALE
  5
62
102
{ACAD_REACTORS
330
47
102
}
330
47
100
AcDbScale
 70
     0
300
1/2" = 1'-0"
140
0.5
141
12.0
290
     0
  0
SCALE
  5
63
102
{ACAD_REACTORS
330
47
102
}
330
47
100
AcDbScale
 70
     0
300
3/4" = 1'-0"
140
0.75
141
12.0
290
     0
  0
SCALE
  5
64
102
{ACAD_REACTORS
330
47
102
}
330
47
100
AcDbScale
 70
     0
300
1" = 1'-0"
140
1.0
141
12.0
290
     0
  0
SCALE
  5
65
102
{ACAD_REACTORS
330
47
102
}
330
47
100
AcDbScale
 70
     0
300
1-1/2" = 1'-0"
140
1.5
141
12.0
290
     0
  0
SCALE
  5
66
102
{ACAD_REACTORS
330
47
102
}
330
47
100
AcDbScale
 70
     0
300
3" = 1'-0"
140
3.0
141
12.0
290
     0
  0
SCALE
  5
67
102
{ACAD_REACTORS
330
47
102
}
330
47
100
AcDbScale
 70
     0
300
6" = 1'-0"
140
6.0
141
12.0
290
     0
  0
SCALE
  5
68
102
{ACAD_REACTORS
330
47
102
}
330
47
100
AcDbScale
 70
     0
300
1'-0" = 1'-0"
140
12.0
141
12.0
290
     0
  0
VISUALSTYLE
  5
2F
102
{ACAD_REACTORS
330
2A
102
}
102
{ACAD_XDICTIONARY
360
2C0
102
}
330
2A
100
AcDbVisualStyle
  2
2dWireframe
 70
     4
 71
     0
 72
     2
 73
     0
 90
        0
 40
0.6
 41
30.0
 62
     5
 63
     7
421
 16777215
 74
     1
 91
        4
 64
     7
 65
   257
 75
     1
175
     1
 42
1.0
 92
        0
 66
   257
 43
1.0
 76
     1
 77
     6
 78
     2
 67
     7
 79
     5
170
     0
171
     0
290
     0
174
     0
 93
        1
 44
0.0
173
     0
291
     0
 45
0.0
1001
ACAD
1000
AcDbSavedByObjectVersion
1070
     0
  0
VISUALSTYLE
  5
32
102
{ACAD_REACTORS
330
2A
102
}
102
{ACAD_XDICTIONARY
360
2C6
102
}
330
2A
100
AcDbVisualStyle
  2
Basic
 70
     7
 71
     1
 72
     0
 73
     1
 90
        0
 40
0.6
 41
30.0
 62
     5
 63
     7
421
 16777215
 74
     0
 91
        4
 64
     7
 65
   257
 75
     1
175
     1
 42
1.0
 92
        8
 66
     7
 43
1.0
 76
     1
 77
     6
 78
     2
 67
     7
 79
     5
170
     0
171
     0
290
     0
174
     0
 93
        1
 44
0.0
173
     0
291
     1
 45
0.0
1001
ACAD
1000
AcDbSavedByObjectVersion
1070
     0
  0
VISUALSTYLE
  5
36
102
{ACAD_REACTORS
330
2A
102
}
102
{ACAD_XDICTIONARY
360
2CE
102
}
330
2A
100
AcDbVisualStyle
  2
Brighten
 70
    12
 71
     2
 72
     2
 73
     0
 90
        0
 40
0.6
 41
30.0
 62
     5
 63
     7
421
 16777215
 74
     1
 91
        4
 64
     7
 65
   257
 75
     1
175
     1
 42
1.0
 92
        8
 66
     7
 43
1.0
 76
     1
 77
     6
 78
     2
 67
     7
 79
     5
170
     0
171
     0
290
     0
174
     0
 93
        1
 44
50.0
173
     0
291
     1
 45
0.0
1001
ACAD
1000
AcDbSavedByObjectVersion
1070
     0
  0
VISUALSTYLE
  5
3A
102
{ACAD_REACTORS
330
2A
102
}
102
{ACAD_XDICTIONARY
360
2D6
102
}
330
2A
100
AcDbVisualStyle
  2
ColorChange
 70
    16
 71
     2
 72
     2
 73
     3
 90
        0
 40
0.6
 41
30.0
 62
     5
 63
     8
421
  8421504
 74
     1
 91
        4
 64
     7
 65
   257
 75
     1
175
     1
 42
1.0
 92
        8
 66
     8
424
  8421504
 43
1.0
 76
     1
 77
     6
 78
     2
 67
     7
 79
     5
170
     0
171
     0
290
     0
174
     0
 93
        1
 44
0.0
173
     0
291
     1
 45
0.0
1001
ACAD
1000
AcDbSavedByObjectVersion
1070
     0
  0
VISUALSTYLE
  5
34
102
{ACAD_REACTORS
330
2A
102
}
102
{ACAD_XDICTIONARY
360
2CA
102
}
330
2A
100
AcDbVisualStyle
  2
Conceptual
 70
     9
 71
     3
 72
     2
 73
     0
 90
        0
 40
0.6
 41
30.0
 62
     5
 63
     7
421
 16777215
 74
     2
 91
        2
 64
     7
 65
   257
 75
     1
175
     1
 42
179.0
 92
        8
 66
     7
 43
1.0
 76
     1
 77
     6
 78
     2
 67
     7
 79
     3
170
     0
171
     0
290
     0
174
     0
 93
        1
 44
0.0
173
     0
291
     0
 45
0.0
1001
ACAD
1000
AcDbSavedByObjectVersion
1070
     0
  0
VISUALSTYLE
  5
35
102
{ACAD_REACTORS
330
2A
102
}
102
{ACAD_XDICTIONARY
360
2CC
102
}
330
2A
100
AcDbVisualStyle
  2
Dim
 70
    11
 71
     2
 72
     2
 73
     0
 90
        0
 40
0.6
 41
30.0
 62
     5
 63
     7
421
 16777215
 74
     1
 91
        4
 64
     7
 65
   257
 75
     1
175
     1
 42
1.0
 92
        8
 66
     7
 43
1.0
 76
     1
 77
     6
 78
     2
 67
     7
 79
     5
170
     0
171
     0
290
     0
174
     0
 93
        1
 44
-50.0
173
     0
291
     1
 45
0.0
1001
ACAD
1000
AcDbSavedByObjectVersion
1070
     0
  0
VISUALSTYLE
  5
3D
102
{ACAD_REACTORS
330
2A
102
}
102
{ACAD_XDICTIONARY
360
2DC
102
}
330
2A
100
AcDbVisualStyle
  2
EdgeColorOff
 70
    22
 71
     2
 72
     2
 73
     0
 90
        0
 40
0.6
 41
30.0
 62
     5
 63
     7
421
 16777215
 74
     1
 91
        4
 64
     7
 65
   257
 75
     1
175
     1
 42
1.0
 92
        8
 66
     7
 43
1.0
 76
     1
 77
     6
 78
     2
 67
     7
 79
     5
170
     0
171
     0
290
     0
174
     0
 93
        1
 44
0.0
173
     0
291
     1
 45
0.0
1001
ACAD
1000
AcDbSavedByObjectVersion
1070
     0
  0
VISUALSTYLE
  5
39
102
{ACAD_REACTORS
330
2A
102
}
102
{ACAD_XDICTIONARY
360
2D4
102
}
330
2A
100
AcDbVisualStyle
  2
Facepattern
 70
    15
 71
     2
 72
     2
 73
     0
 90
        0
 40
0.6
 41
30.0
 62
     5
 63
     7
421
 16777215
 74
     1
 91
        4
 64
     7
 65
   257
 75
     1
175
     1
 42
1.0
 92
        8
 66
     7
 43
1.0
 76
     1
 77
     6
 78
     2
 67
     7
 79
     5
170
     0
171
     0
290
     0
174
     0
 93
        1
 44
0.0
173
     0
291
     1
 45
0.0
1001
ACAD
1000
AcDbSavedByObjectVersion
1070
     0
  0
VISUALSTYLE
  5
2B
102
{ACAD_REACTORS
330
2A
102
}
102
{ACAD_XDICTIONARY
360
2B8
102
}
330
2A
100
AcDbVisualStyle
  2
Flat
 70
     0
 71
     2
 72
     1
 73
     1
 90
        2
 40
0.6
 41
30.0
 62
     5
 63
     7
421
 16777215
 74
     0
 91
        0
 64
     7
 65
   257
 75
     1
175
     1
 42
1.0
 92
        8
 66
     7
 43
1.0
 76
     1
 77
     6
 78
     2
 67
     7
 79
     5
170
     0
171
     0
290
     0
174
     0
 93
       13
 44
0.0
173
     0
291
     1
 45
0.0
1001
ACAD
1000
AcDbSavedByObjectVersion
1070
     0
  0
VISUALSTYLE
  5
2C
102
{ACAD_REACTORS
330
2A
102
}
102
{ACAD_XDICTIONARY
360
2BA
102
}
330
2A
100
AcDbVisualStyle
  2
FlatWithEdges
 70
     1
 71
     2
 72
     1
 73
     1
 90
        2
 40
0.6
 41
30.0
 62
     5
 63
     7
421
 16777215
 74
     1
 91
        0
 64
     7
 65
   257
 75
     1
175
     1
 42
1.0
 92
        0
 66
   257
 43
1.0
 76
     1
 77
     6
 78
     2
 67
     7
 79
     5
170
     0
171
     0
290
     0
174
     0
 93
       13
 44
0.0
173
     0
291
     1
 45
0.0
1001
ACAD
1000
AcDbSavedByObjectVersion
1070
     0
  0
VISUALSTYLE
  5
2D
102
{ACAD_REACTORS
330
2A
102
}
102
{ACAD_XDICTIONARY
360
2BC
102
}
330
2A
100
AcDbVisualStyle
  2
Gouraud
 70
     2
 71
     2
 72
     2
 73
     1
 90
        2
 40
0.6
 41
30.0
 62
     5
 63
     7
421
 16777215
 74
     0
 91
        0
 64
     7
 65
   257
 75
     1
175
     1
 42
1.0
 92
        0
 66
     7
 43
1.0
 76
     1
 77
     6
 78
     2
 67
     7
 79
     5
170
     0
171
     0
290
     0
174
     0
 93
       13
 44
0.0
173
     0
291
     1
 45
0.0
1001
ACAD
1000
AcDbSavedByObjectVersion
1070
     0
  0
VISUALSTYLE
  5
2E
102
{ACAD_REACTORS
330
2A
102
}
102
{ACAD_XDICTIONARY
360
2BE
102
}
330
2A
100
AcDbVisualStyle
  2
GouraudWithEdges
 70
     3
 71
     2
 72
     2
 73
     1
 90
        2
 40
0.6
 41
30.0
 62
     5
 63
     7
421
 16777215
 74
     1
 91
        0
 64
     7
 65
   257
 75
     1
175
     1
 42
1.0
 92
        0
 66
   257
 43
1.0
 76
     1
 77
     6
 78
     2
 67
     7
 79
     5
170
     0
171
     0
290
     0
174
     0
 93
       13
 44
0.0
173
     0
291
     1
 45
0.0
1001
ACAD
1000
AcDbSavedByObjectVersion
1070
     0
  0
VISUALSTYLE
  5
31
102
{ACAD_REACTORS
330
2A
102
}
102
{ACAD_XDICTIONARY
360
2C4
102
}
330
2A
100
AcDbVisualStyle
  2
Hidden
 70
     6
 71
     1
 72
     2
 73
     2
 90
        0
 40
0.6
 41
30.0
 62
     5
 63
     7
421
 16777215
 74
     2
 91
        2
 64
     7
 65
   257
 75
     2
175
     1
 42
40.0
 92
        0
 66
   257
 43
1.0
 76
     1
 77
     6
 78
     2
 67
     7
 79
     3
170
     0
171
     0
290
     0
174
     0
 93
        1
 44
0.0
173
     0
291
     0
 45
0.0
1001
ACAD
1000
AcDbSavedByObjectVersion
1070
     0
  0
VISUALSTYLE
  5
3B
102
{ACAD_REACTORS
330
2A
102
}
102
{ACAD_XDICTIONARY
360
2D8
102
}
330
2A
100
AcDbVisualStyle
  2
JitterOff
 70
    20
 71
     2
 72
     2
 73
     0
 90
        0
 40
0.6
 41
30.0
 62
     5
 63
     7
421
 16777215
 74
     1
 91
        4
 64
     7
 65
   257
 75
     1
175
     1
 42
1.0
 92
       10
 66
     7
 43
1.0
 76
     1
 77
     6
 78
     2
 67
     7
 79
     5
170
     0
171
     0
290
     0
174
     0
 93
        1
 44
0.0
173
     0
291
     1
 45
0.0
1001
ACAD
1000
AcDbSavedByObjectVersion
1070
     0
  0
VISUALSTYLE
  5
38
102
{ACAD_REACTORS
330
2A
102
}
102
{ACAD_XDICTIONARY
360
2D2
102
}
330
2A
100
AcDbVisualStyle
  2
Linepattern
 70
    14
 71
     2
 72
     2
 73
     0
 90
        0
 40
0.6
 41
30.0
 62
     5
 63
     7
421
 16777215
 74
     1
 91
        4
 64
     7
 65
   257
 75
     7
175
     7
 42
1.0
 92
        8
 66
     7
 43
1.0
 76
     1
 77
     6
 78
     2
 67
     7
 79
     5
170
     0
171
     0
290
     0
174
     0
 93
        1
 44
0.0
173
     0
291
     1
 45
0.0
1001
ACAD
1000
AcDbSavedByObjectVersion
1070
     0
  0
VISUALSTYLE
  5
3C
102
{ACAD_REACTORS
330
2A
102
}
102
{ACAD_XDICTIONARY
360
2DA
102
}
330
2A
100
AcDbVisualStyle
  2
OverhangOff
 70
    21
 71
     2
 72
     2
 73
     0
 90
        0
 40
0.6
 41
30.0
 62
     5
 63
     7
421
 16777215
 74
     1
 91
        4
 64
     7
 65
   257
 75
     1
175
     1
 42
1.0
 92
        9
 66
     7
 43
1.0
 76
     1
 77
     6
 78
     2
 67
     7
 79
     5
170
     0
171
     0
290
     0
174
     0
 93
        1
 44
0.0
173
     0
291
     1
 45
0.0
1001
ACAD
1000
AcDbSavedByObjectVersion
1070
     0
  0
VISUALSTYLE
  5
33
102
{ACAD_REACTORS
330
2A
102
}
102
{ACAD_XDICTIONARY
360
2C8
102
}
330
2A
100
AcDbVisualStyle
  2
Realistic
 70
     8
 71
     2
 72
     3
 73
     0
 90
        2
 40
0.6
 41
30.0
 62
     5
 63
     7
421
 16777215
 74
     0
 91
        0
 64
     7
 65
   257
 75
     1
175
     1
 42
1.0
 92
        8
 66
   257
 43
1.0
 76
     1
 77
     6
 78
     2
 67
     7
 79
     3
170
     0
171
     0
290
     0
174
     0
 93
       13
 44
0.0
173
     0
291
     0
 45
0.0
1001
ACAD
1000
AcDbSavedByObjectVersion
1070
     0
  0
VISUALSTYLE
  5
42
102
{ACAD_REACTORS
330
2A
102
}
102
{ACAD_XDICTIONARY
360
2E6
102
}
330
2A
100
AcDbVisualStyle
  2
Shaded
 70
    27
 71
     2
 72
     2
 73
     1
 90
        2
 40
0.6
 41
30.0
 62
     5
 63
     7
421
 16777215
 74
     0
 91
        4
 64
     7
 65
   257
 75
     1
175
     1
 42
1.0
 92
        8
 66
   257
 43
1.0
 76
     1
 77
     6
 78
     2
 67
     8
425
  7895160
 79
     3
170
     0
171
     0
290
     0
174
     0
 93
        5
 44
0.0
173
     0
291
     0
 45
0.0
1001
ACAD
1000
AcDbSavedByObjectVersion
1070
     0
  0
VISUALSTYLE
  5
41
102
{ACAD_REACTORS
330
2A
102
}
102
{ACAD_XDICTIONARY
360
2E4
102
}
330
2A
100
AcDbVisualStyle
  2
Shaded with edges
 70
    26
 71
     2
 72
     2
 73
     1
 90
        2
 40
0.6
 41
30.0
 62
     5
 63
     7
421
 16777215
 74
     1
 91
       10
 64
     7
 65
   257
 75
     2
175
     1
 42
1.0
 92
        8
 66
   257
 43
1.0
 76
     1
 77
     6
 78
     2
 67
     7
 79
     3
170
     0
171
     0
290
     0
174
     0
 93
        5
 44
0.0
173
     0
291
     0
 45
0.0
1001
ACAD
1000
AcDbSavedByObjectVersion
1070
     0
  0
VISUALSTYLE
  5
3E
102
{ACAD_REACTORS
330
2A
102
}
102
{ACAD_XDICTIONARY
360
2DE
102
}
330
2A
100
AcDbVisualStyle
  2
Shades of Gray
 70
    23
 71
     2
 72
     2
 73
     3
 90
        0
 40
0.6
 41
30.0
 62
     5
 63
     7
421
 16777215
 74
     2
 91
        2
 64
     7
 65
     7
 75
     1
175
     1
 42
40.0
 92
        8
 66
     7
 43
1.0
 76
     1
 77
     6
 78
     2
 67
     7
 79
     3
170
     0
171
     0
290
     0
174
     0
 93
        1
 44
0.0
173
     0
291
     0
 45
0.0
1001
ACAD
1000
AcDbSavedByObjectVersion
1070
     0
  0
VISUALSTYLE
  5
3F
102
{ACAD_REACTORS
330
2A
102
}
102
{ACAD_XDICTIONARY
360
2E0
102
}
330
2A
100
AcDbVisualStyle
  2
Sketchy
 70
    24
 71
     1
 72
     2
 73
     2
 90
        0
 40
0.6
 41
30.0
 62
     5
 63
     7
421
 16777215
 74
     2
 91
        2
 64
     7
 65
     7
 75
     1
175
     1
 42
40.0
 92
       11
 66
     7
 43
1.0
 76
     1
 77
     6
 78
     2
 67
     7
 79
     6
170
     0
171
     0
290
     0
174
     0
 93
        1
 44
0.0
173
     0
291
     0
 45
0.0
1001
ACAD
1000
AcDbSavedByObjectVersion
1070
     0
  0
VISUALSTYLE
  5
37
102
{ACAD_REACTORS
330
2A
102
}
102
{ACAD_XDICTIONARY
360
2D0
102
}
330
2A
100
AcDbVisualStyle
  2
Thicken
 70
    13
 71
     2
 72
     2
 73
     0
 90
        0
 40
0.6
 41
30.0
 62
     5
 63
     7
421
 16777215
 74
     1
 91
        4
 64
     7
 65
   257
 75
     1
175
     1
 42
1.0
 92
       12
 66
     7
 43
1.0
 76
     1
 77
     6
 78
     2
 67
     7
 79
     5
170
     0
171
     0
290
     0
174
     0
 93
        1
 44
0.0
173
     0
291
     1
 45
0.0
1001
ACAD
1000
AcDbSavedByObjectVersion
1070
     0
  0
VISUALSTYLE
  5
30
102
{ACAD_REACTORS
330
2A
102
}
102
{ACAD_XDICTIONARY
360
2C2
102
}
330
2A
100
AcDbVisualStyle
  2
Wireframe
 70
     5
 71
     0
 72
     2
 73
     0
 90
        0
 40
0.6
 41
30.0
 62
     5
 63
     7
421
 16777215
 74
     1
 91
        4
 64
     7
 65
   257
 75
     1
175
     1
 42
1.0
 92
        0
 66
   257
 43
1.0
 76
     1
 77
     6
 78
     2
 67
     7
 79
     3
170
     0
171
     0
290
     0
174
     0
 93
        1
 44
0.0
173
     0
291
     0
 45
0.0
1001
ACAD
1000
AcDbSavedByObjectVersion
1070
     0
  0
VISUALSTYLE
  5
40
102
{ACAD_REACTORS
330
2A
102
}
102
{ACAD_XDICTIONARY
360
2E2
102
}
330
2A
100
AcDbVisualStyle
  2
X-Ray
 70
    25
 71
     2
 72
     2
 73
     1
 90
        1
 40
0.5
 41
30.0
 62
     5
 63
     7
421
 16777215
 74
     1
 91
        0
 64
     7
 65
   257
 75
     1
175
     1
 42
1.0
 92
        8
 66
     7
 43
1.0
 76
     1
 77
     6
 78
     2
 67
     7
 79
     3
170
     0
171
     0
290
     0
174
     0
 93
       13
 44
0.0
173
     0
291
     0
 45
0.0
1001
ACAD
1000
AcDbSavedByObjectVersion
1070
     0
  0
DICTIONARYVAR
  5
2B6
102
{ACAD_REACTORS
330
2B5
102
}
330
2B5
100
DictionaryVariables
280
     0
  1
1:1
  0
DICTIONARYVAR
  5
2B7
102
{ACAD_REACTORS
330
2B5
102
}
330
2B5
100
DictionaryVariables
280
     0
  1
1
  0
DICTIONARY
  5
2EA
330
45
100
AcDbDictionary
280
     1
281
     1
  3
ACAD_XREC_ROUNDTRIP
360
2EB
  0
DICTIONARY
  5
2E8
330
44
100
AcDbDictionary
280
     1
281
     1
  3
ACAD_XREC_ROUNDTRIP
360
2E9
  0
DICTIONARY
  5
2EC
330
46
100
AcDbDictionary
280
     1
281
     1
  3
ACAD_XREC_ROUNDTRIP
360
2ED
  0
DICTIONARY
  5
2C0
330
2F
100
AcDbDictionary
280
     1
281
     1
  3
ACAD_XREC_ROUNDTRIP
360
2C1
  0
DICTIONARY
  5
2C6
330
32
100
AcDbDictionary
280
     1
281
     1
  3
ACAD_XREC_ROUNDTRIP
360
2C7
  0
DICTIONARY
  5
2CE
330
36
100
AcDbDictionary
280
     1
281
     1
  3
ACAD_XREC_ROUNDTRIP
360
2CF
  0
DICTIONARY
  5
2D6
330
3A
100
AcDbDictionary
280
     1
281
     1
  3
ACAD_XREC_ROUNDTRIP
360
2D7
  0
DICTIONARY
  5
2CA
330
34
100
AcDbDictionary
280
     1
281
     1
  3
ACAD_XREC_ROUNDTRIP
360
2CB
  0
DICTIONARY
  5
2CC
330
35
100
AcDbDictionary
280
     1
281
     1
  3
ACAD_XREC_ROUNDTRIP
360
2CD
  0
DICTIONARY
  5
2DC
330
3D
100
AcDbDictionary
280
     1
281
     1
  3
ACAD_XREC_ROUNDTRIP
360
2DD
  0
DICTIONARY
  5
2D4
330
39
100
AcDbDictionary
280
     1
281
     1
  3
ACAD_XREC_ROUNDTRIP
360
2D5
  0
DICTIONARY
  5
2B8
330
2B
100
AcDbDictionary
280
     1
281
     1
  3
ACAD_XREC_ROUNDTRIP
360
2B9
  0
DICTIONARY
  5
2BA
330
2C
100
AcDbDictionary
280
     1
281
     1
  3
ACAD_XREC_ROUNDTRIP
360
2BB
  0
DICTIONARY
  5
2BC
330
2D
100
AcDbDictionary
280
     1
281
     1
  3
ACAD_XREC_ROUNDTRIP
360
2BD
  0
DICTIONARY
  5
2BE
330
2E
100
AcDbDictionary
280
     1
281
     1
  3
ACAD_XREC_ROUNDTRIP
360
2BF
  0
DICTIONARY
  5
2C4
330
31
100
AcDbDictionary
280
     1
281
     1
  3
ACAD_XREC_ROUNDTRIP
360
2C5
  0
DICTIONARY
  5
2D8
330
3B
100
AcDbDictionary
280
     1
281
     1
  3
ACAD_XREC_ROUNDTRIP
360
2D9
  0
DICTIONARY
  5
2D2
330
38
100
AcDbDictionary
280
     1
281
     1
  3
ACAD_XREC_ROUNDTRIP
360
2D3
  0
DICTIONARY
  5
2DA
330
3C
100
AcDbDictionary
280
     1
281
     1
  3
ACAD_XREC_ROUNDTRIP
360
2DB
  0
DICTIONARY
  5
2C8
330
33
100
AcDbDictionary
280
     1
281
     1
  3
ACAD_XREC_ROUNDTRIP
360
2C9
  0
DICTIONARY
  5
2E6
330
42
100
AcDbDictionary
280
     1
281
     1
  3
ACAD_XREC_ROUNDTRIP
360
2E7
  0
DICTIONARY
  5
2E4
330
41
100
AcDbDictionary
280
     1
281
     1
  3
ACAD_XREC_ROUNDTRIP
360
2E5
  0
DICTIONARY
  5
2DE
330
3E
100
AcDbDictionary
280
     1
281
     1
  3
ACAD_XREC_ROUNDTRIP
360
2DF
  0
DICTIONARY
  5
2E0
330
3F
100
AcDbDictionary
280
     1
281
     1
  3
ACAD_XREC_ROUNDTRIP
360
2E1
  0
DICTIONARY
  5
2D0
330
37
100
AcDbDictionary
280
     1
281
     1
  3
ACAD_XREC_ROUNDTRIP
360
2D1
  0
DICTIONARY
  5
2C2
330
30
100
AcDbDictionary
280
     1
281
     1
  3
ACAD_XREC_ROUNDTRIP
360
2C3
  0
DICTIONARY
  5
2E2
330
40
100
AcDbDictionary
280
     1
281
     1
  3
ACAD_XREC_ROUNDTRIP
360
2E3
  0
XRECORD
  5
2EB
102
{ACAD_REACTORS
330
2EA
102
}
330
2EA
100
AcDbXrecord
280
     1
102
MATERIAL
148
0.0
149
0.0
149
0.0
 93
        0
 94
      127
282
     0
 72
     1
 77
     1
171
     1
175
     1
179
     1
273
     0
  0
XRECORD
  5
2E9
102
{ACAD_REACTORS
330
2E8
102
}
330
2E8
100
AcDbXrecord
280
     1
102
MATERIAL
148
0.0
149
0.0
149
0.0
 93
        0
 94
      127
282
     0
 72
     1
 77
     1
171
     1
175
     1
179
     1
273
     0
  0
XRECORD
  5
2ED
102
{ACAD_REACTORS
330
2EC
102
}
330
2EC
100
AcDbXrecord
280
     1
102
MATERIAL
148
0.0
149
0.0
149
0.0
 93
        0
 94
      127
282
     0
 72
     1
 77
     1
171
     1
175
     1
179
     1
273
     0
  0
XRECORD
  5
2C1
102
{ACAD_REACTORS
330
2C0
102
}
330
2C0
100
AcDbXrecord
280
     1
102
RTVSPropertyOp0
 70
     1
102
RTVSPropertyOp1
 70
     1
102
RTVSPropertyOp2
 70
     1
102
RTVSPropertyOp3
 70
     1
102
RTVSPropertyOp4
 70
     1
102
RTVSPropertyOp5
 70
     1
102
RTVSPropertyOp6
 70
     1
102
RTVSPropertyOp7
 70
     1
102
RTVSPropertyOp8
 70
     1
102
RTVSPropertyOp9
 70
     1
102
RTVSPropertyOp10
 70
     1
102
RTVSPropertyOp11
 70
     1
102
RTVSPropertyOp12
 70
     1
102
RTVSPropertyOp13
 70
     1
102
RTVSPropertyOp14
 70
     1
102
RTVSPropertyOp15
 70
     1
102
RTVSPropertyOp16
 70
     1
102
RTVSPropertyOp17
 70
     1
102
RTVSPropertyOp18
 70
     1
102
RTVSPropertyOp19
 70
     1
102
RTVSPropertyOp20
 70
     1
102
RTVSPropertyOp21
 70
     1
102
RTVSPropertyOp22
 70
     1
102
RTVSPropertyOp23
 70
     1
102
RTVSPropertyOp24
 70
     1
102
RTVSPropertyOp25
 70
     1
102
RTVSPropertyOp26
 70
     1
102
RTVSPropertyOp27
 70
     1
102
RTVSPropertyOp28
 70
     1
102
RTVSPropertyOp29
 70
     1
102
RTVSPropertyOp30
 70
     1
102
RTVSPropertyOp31
 70
     1
102
RTVSPropertyOp32
 70
     1
102
RTVSPropertyOp33
 70
     1
102
RTVSPropertyOp34
 70
     1
102
RTVSPropertyOp35
 70
     1
102
RTVSPropertyOp36
 70
     1
102
RTVSPropertyOp37
 70
     1
102
RTVSPropertyOp38
 70
     1
102
RTVSPropertyOp39
 70
     1
102
RTVSPropertyOp40
 70
     1
102
RTVSPropertyOp41
 70
     1
102
RTVSPropertyOp42
 70
     1
102
RTVSPropertyOp43
 70
     1
102
RTVSPropertyOp44
 70
     1
102
RTVSPropertyOp45
 70
     1
102
RTVSPropertyOp46
 70
     1
102
RTVSPropertyOp47
 70
     1
102
RTVSPropertyOp48
 70
     1
102
RTVSPropertyOp49
 70
     1
102
RTVSPropertyOp50
 70
     1
102
RTVSPropertyOp51
 70
     0
102
RTVSPropertyOp52
 70
     0
102
RTVSPropertyOp53
 70
     1
102
RTVSPropertyOp54
 70
     1
102
RTVSPropertyOp55
 70
     1
102
RTVSPropertyOp56
 70
     1
102
RTVSPropertyOp57
 70
     1
102
RTVSPost2010Prop28
280
     1
102
RTVSPost2010PropOp28
 70
     1
102
RTVSPost2010Prop29
280
     1
102
RTVSPost2010PropOp29
 70
     1
102
RTVSPost2010Prop30
280
     0
102
RTVSPost2010PropOp30
 70
     1
102
RTVSPost2010Prop31
280
     0
102
RTVSPost2010PropOp31
 70
     1
102
RTVSPost2010Prop32
280
     0
102
RTVSPost2010PropOp32
 70
     1
102
RTVSPost2010Prop33
280
     0
102
RTVSPost2010PropOp33
 70
     1
102
RTVSPost2010Prop34
280
     0
102
RTVSPost2010PropOp34
 70
     1
102
RTVSPost2010Prop35
280
     0
102
RTVSPost2010PropOp35
 70
     1
102
RTVSPost2010Prop36
280
     0
102
RTVSPost2010PropOp36
 70
     1
102
RTVSPost2010Prop37
 90
       50
102
RTVSPost2010PropOp37
 70
     1
102
RTVSPost2010Prop38
140
0.0
102
RTVSPost2010PropOp38
 70
     1
102
RTVSPost2010Prop39
140
1.0
102
RTVSPost2010PropOp39
 70
     1
102
RTVSPost2010Prop40
 90
        0
102
RTVSPost2010PropOp40
 70
     1
102
RTVSPost2010Prop41ColorIndex
 90
       18
102
RTVSPost2010Prop41ColorRGB
 90
        0
102
RTVSPost2010PropOp41
 70
     1
102
RTVSPost2010Prop42
 90
       50
102
RTVSPost2010PropOp42
 70
     1
102
RTVSPost2010Prop43
 90
        3
102
RTVSPost2010PropOp43
 70
     1
102
RTVSPost2010Prop44ColorIndex
 90
        5
102
RTVSPost2010Prop44ColorRGB
 90
      255
102
RTVSPost2010PropOp44
 70
     1
102
RTVSPost2010Prop45
280
     0
102
RTVSPost2010PropOp45
 70
     1
102
RTVSPost2010Prop46
 90
       50
102
RTVSPost2010PropOp46
 70
     1
102
RTVSPost2010Prop47
 90
       50
102
RTVSPost2010PropOp47
 70
     1
102
RTVSPost2010Prop48
 90
       50
102
RTVSPost2010PropOp48
 70
     1
102
RTVSPost2010Prop49
280
     0
102
RTVSPost2010PropOp49
 70
     1
102
RTVSPost2010Prop50
 90
       50
102
RTVSPost2010PropOp50
 70
     1
102
RTVSPost2010Prop51ColorIndex
 90
      256
102
RTVSPost2010Prop51ColorRGB
 90
-16777216
102
RTVSPost2010PropOp51
 70
     0
102
RTVSPost2010Prop52
140
1.0
102
RTVSPost2010PropOp52
 70
     0
102
RTVSPost2010Prop53
 90
        2
102
RTVSPost2010PropOp53
 70
     1
102
RTVSPost2010Prop54
  1
strokes_ogs.tif
102
RTVSPost2010PropOp54
 70
     1
102
RTVSPost2010Prop55
280
     0
102
RTVSPost2010PropOp55
 70
     1
102
RTVSPost2010Prop56
140
1.0
102
RTVSPost2010PropOp56
 70
     1
102
RTVSPost2010Prop57
140
1.0
102
RTVSPost2010PropOp57
 70
     1
  0
XRECORD
  5
2C7
102
{ACAD_REACTORS
330
2C6
102
}
330
2C6
100
AcDbXrecord
280
     1
102
RTVSPropertyOp0
 70
     1
102
RTVSPropertyOp1
 70
     1
102
RTVSPropertyOp2
 70
     1
102
RTVSPropertyOp3
 70
     1
102
RTVSPropertyOp4
 70
     1
102
RTVSPropertyOp5
 70
     1
102
RTVSPropertyOp6
 70
     1
102
RTVSPropertyOp7
 70
     1
102
RTVSPropertyOp8
 70
     1
102
RTVSPropertyOp9
 70
     1
102
RTVSPropertyOp10
 70
     1
102
RTVSPropertyOp11
 70
     1
102
RTVSPropertyOp12
 70
     1
102
RTVSPropertyOp13
 70
     1
102
RTVSPropertyOp14
 70
     1
102
RTVSPropertyOp15
 70
     1
102
RTVSPropertyOp16
 70
     1
102
RTVSPropertyOp17
 70
     1
102
RTVSPropertyOp18
 70
     1
102
RTVSPropertyOp19
 70
     1
102
RTVSPropertyOp20
 70
     1
102
RTVSPropertyOp21
 70
     1
102
RTVSPropertyOp22
 70
     1
102
RTVSPropertyOp23
 70
     1
102
RTVSPropertyOp24
 70
     1
102
RTVSPropertyOp25
 70
     1
102
RTVSPropertyOp26
 70
     1
102
RTVSPropertyOp27
 70
     1
102
RTVSPropertyOp28
 70
     1
102
RTVSPropertyOp29
 70
     1
102
RTVSPropertyOp30
 70
     1
102
RTVSPropertyOp31
 70
     1
102
RTVSPropertyOp32
 70
     1
102
RTVSPropertyOp33
 70
     1
102
RTVSPropertyOp34
 70
     1
102
RTVSPropertyOp35
 70
     1
102
RTVSPropertyOp36
 70
     1
102
RTVSPropertyOp37
 70
     1
102
RTVSPropertyOp38
 70
     1
102
RTVSPropertyOp39
 70
     1
102
RTVSPropertyOp40
 70
     1
102
RTVSPropertyOp41
 70
     1
102
RTVSPropertyOp42
 70
     1
102
RTVSPropertyOp43
 70
     1
102
RTVSPropertyOp44
 70
     1
102
RTVSPropertyOp45
 70
     1
102
RTVSPropertyOp46
 70
     1
102
RTVSPropertyOp47
 70
     1
102
RTVSPropertyOp48
 70
     1
102
RTVSPropertyOp49
 70
     1
102
RTVSPropertyOp50
 70
     1
102
RTVSPropertyOp51
 70
     0
102
RTVSPropertyOp52
 70
     0
102
RTVSPropertyOp53
 70
     1
102
RTVSPropertyOp54
 70
     1
102
RTVSPropertyOp55
 70
     1
102
RTVSPropertyOp56
 70
     1
102
RTVSPropertyOp57
 70
     1
102
RTVSPost2010Prop28
280
     0
102
RTVSPost2010PropOp28
 70
     1
102
RTVSPost2010Prop29
280
     1
102
RTVSPost2010PropOp29
 70
     1
102
RTVSPost2010Prop30
280
     1
102
RTVSPost2010PropOp30
 70
     1
102
RTVSPost2010Prop31
280
     0
102
RTVSPost2010PropOp31
 70
     1
102
RTVSPost2010Prop32
280
     0
102
RTVSPost2010PropOp32
 70
     1
102
RTVSPost2010Prop33
280
     0
102
RTVSPost2010PropOp33
 70
     1
102
RTVSPost2010Prop34
280
     0
102
RTVSPost2010PropOp34
 70
     1
102
RTVSPost2010Prop35
280
     0
102
RTVSPost2010PropOp35
 70
     1
102
RTVSPost2010Prop36
280
     0
102
RTVSPost2010PropOp36
 70
     1
102
RTVSPost2010Prop37
 90
       50
102
RTVSPost2010PropOp37
 70
     1
102
RTVSPost2010Prop38
140
0.0
102
RTVSPost2010PropOp38
 70
     1
102
RTVSPost2010Prop39
140
1.0
102
RTVSPost2010PropOp39
 70
     1
102
RTVSPost2010Prop40
 90
        0
102
RTVSPost2010PropOp40
 70
     1
102
RTVSPost2010Prop41ColorIndex
 90
       18
102
RTVSPost2010Prop41ColorRGB
 90
        0
102
RTVSPost2010PropOp41
 70
     1
102
RTVSPost2010Prop42
 90
       50
102
RTVSPost2010PropOp42
 70
     1
102
RTVSPost2010Prop43
 90
        3
102
RTVSPost2010PropOp43
 70
     1
102
RTVSPost2010Prop44ColorIndex
 90
        5
102
RTVSPost2010Prop44ColorRGB
 90
      255
102
RTVSPost2010PropOp44
 70
     1
102
RTVSPost2010Prop45
280
     0
102
RTVSPost2010PropOp45
 70
     1
102
RTVSPost2010Prop46
 90
       50
102
RTVSPost2010PropOp46
 70
     1
102
RTVSPost2010Prop47
 90
       50
102
RTVSPost2010PropOp47
 70
     1
102
RTVSPost2010Prop48
 90
       50
102
RTVSPost2010PropOp48
 70
     1
102
RTVSPost2010Prop49
280
     0
102
RTVSPost2010PropOp49
 70
     1
102
RTVSPost2010Prop50
 90
       50
102
RTVSPost2010PropOp50
 70
     1
102
RTVSPost2010Prop51ColorIndex
 90
      256
102
RTVSPost2010Prop51ColorRGB
 90
-16777216
102
RTVSPost2010PropOp51
 70
     0
102
RTVSPost2010Prop52
140
1.0
102
RTVSPost2010PropOp52
 70
     0
102
RTVSPost2010Prop53
 90
        2
102
RTVSPost2010PropOp53
 70
     1
102
RTVSPost2010Prop54
  1
strokes_ogs.tif
102
RTVSPost2010PropOp54
 70
     1
102
RTVSPost2010Prop55
280
     0
102
RTVSPost2010PropOp55
 70
     1
102
RTVSPost2010Prop56
140
1.0
102
RTVSPost2010PropOp56
 70
     1
102
RTVSPost2010Prop57
140
1.0
102
RTVSPost2010PropOp57
 70
     1
  0
XRECORD
  5
2CF
102
{ACAD_REACTORS
330
2CE
102
}
330
2CE
100
AcDbXrecord
280
     1
102
RTVSPropertyOp0
 70
     1
102
RTVSPropertyOp1
 70
     1
102
RTVSPropertyOp2
 70
     1
102
RTVSPropertyOp3
 70
     1
102
RTVSPropertyOp4
 70
     1
102
RTVSPropertyOp5
 70
     1
102
RTVSPropertyOp6
 70
     1
102
RTVSPropertyOp7
 70
     1
102
RTVSPropertyOp8
 70
     1
102
RTVSPropertyOp9
 70
     1
102
RTVSPropertyOp10
 70
     1
102
RTVSPropertyOp11
 70
     1
102
RTVSPropertyOp12
 70
     1
102
RTVSPropertyOp13
 70
     1
102
RTVSPropertyOp14
 70
     1
102
RTVSPropertyOp15
 70
     1
102
RTVSPropertyOp16
 70
     1
102
RTVSPropertyOp17
 70
     1
102
RTVSPropertyOp18
 70
     1
102
RTVSPropertyOp19
 70
     1
102
RTVSPropertyOp20
 70
     1
102
RTVSPropertyOp21
 70
     1
102
RTVSPropertyOp22
 70
     1
102
RTVSPropertyOp23
 70
     1
102
RTVSPropertyOp24
 70
     1
102
RTVSPropertyOp25
 70
     1
102
RTVSPropertyOp26
 70
     1
102
RTVSPropertyOp27
 70
     1
102
RTVSPropertyOp28
 70
     1
102
RTVSPropertyOp29
 70
     1
102
RTVSPropertyOp30
 70
     1
102
RTVSPropertyOp31
 70
     1
102
RTVSPropertyOp32
 70
     1
102
RTVSPropertyOp33
 70
     1
102
RTVSPropertyOp34
 70
     1
102
RTVSPropertyOp35
 70
     1
102
RTVSPropertyOp36
 70
     1
102
RTVSPropertyOp37
 70
     1
102
RTVSPropertyOp38
 70
     1
102
RTVSPropertyOp39
 70
     1
102
RTVSPropertyOp40
 70
     1
102
RTVSPropertyOp41
 70
     1
102
RTVSPropertyOp42
 70
     1
102
RTVSPropertyOp43
 70
     1
102
RTVSPropertyOp44
 70
     1
102
RTVSPropertyOp45
 70
     1
102
RTVSPropertyOp46
 70
     1
102
RTVSPropertyOp47
 70
     1
102
RTVSPropertyOp48
 70
     1
102
RTVSPropertyOp49
 70
     1
102
RTVSPropertyOp50
 70
     1
102
RTVSPropertyOp51
 70
     0
102
RTVSPropertyOp52
 70
     0
102
RTVSPropertyOp53
 70
     1
102
RTVSPropertyOp54
 70
     1
102
RTVSPropertyOp55
 70
     1
102
RTVSPropertyOp56
 70
     1
102
RTVSPropertyOp57
 70
     1
102
RTVSPost2010Prop28
280
     0
102
RTVSPost2010PropOp28
 70
     1
102
RTVSPost2010Prop29
280
     1
102
RTVSPost2010PropOp29
 70
     1
102
RTVSPost2010Prop30
280
     1
102
RTVSPost2010PropOp30
 70
     1
102
RTVSPost2010Prop31
280
     0
102
RTVSPost2010PropOp31
 70
     1
102
RTVSPost2010Prop32
280
     0
102
RTVSPost2010PropOp32
 70
     1
102
RTVSPost2010Prop33
280
     0
102
RTVSPost2010PropOp33
 70
     1
102
RTVSPost2010Prop34
280
     0
102
RTVSPost2010PropOp34
 70
     1
102
RTVSPost2010Prop35
280
     0
102
RTVSPost2010PropOp35
 70
     1
102
RTVSPost2010Prop36
280
     0
102
RTVSPost2010PropOp36
 70
     1
102
RTVSPost2010Prop37
 90
       50
102
RTVSPost2010PropOp37
 70
     1
102
RTVSPost2010Prop38
140
0.0
102
RTVSPost2010PropOp38
 70
     1
102
RTVSPost2010Prop39
140
1.0
102
RTVSPost2010PropOp39
 70
     1
102
RTVSPost2010Prop40
 90
        0
102
RTVSPost2010PropOp40
 70
     1
102
RTVSPost2010Prop41ColorIndex
 90
       18
102
RTVSPost2010Prop41ColorRGB
 90
        0
102
RTVSPost2010PropOp41
 70
     1
102
RTVSPost2010Prop42
 90
       50
102
RTVSPost2010PropOp42
 70
     1
102
RTVSPost2010Prop43
 90
        3
102
RTVSPost2010PropOp43
 70
     1
102
RTVSPost2010Prop44ColorIndex
 90
        5
102
RTVSPost2010Prop44ColorRGB
 90
      255
102
RTVSPost2010PropOp44
 70
     1
102
RTVSPost2010Prop45
280
     0
102
RTVSPost2010PropOp45
 70
     1
102
RTVSPost2010Prop46
 90
       50
102
RTVSPost2010PropOp46
 70
     1
102
RTVSPost2010Prop47
 90
       50
102
RTVSPost2010PropOp47
 70
     1
102
RTVSPost2010Prop48
 90
       50
102
RTVSPost2010PropOp48
 70
     1
102
RTVSPost2010Prop49
280
     0
102
RTVSPost2010PropOp49
 70
     1
102
RTVSPost2010Prop50
 90
       50
102
RTVSPost2010PropOp50
 70
     1
102
RTVSPost2010Prop51ColorIndex
 90
      256
102
RTVSPost2010Prop51ColorRGB
 90
-16777216
102
RTVSPost2010PropOp51
 70
     0
102
RTVSPost2010Prop52
140
1.0
102
RTVSPost2010PropOp52
 70
     0
102
RTVSPost2010Prop53
 90
        2
102
RTVSPost2010PropOp53
 70
     1
102
RTVSPost2010Prop54
  1
strokes_ogs.tif
102
RTVSPost2010PropOp54
 70
     1
102
RTVSPost2010Prop55
280
     0
102
RTVSPost2010PropOp55
 70
     1
102
RTVSPost2010Prop56
140
1.0
102
RTVSPost2010PropOp56
 70
     1
102
RTVSPost2010Prop57
140
1.0
102
RTVSPost2010PropOp57
 70
     1
  0
XRECORD
  5
2D7
102
{ACAD_REACTORS
330
2D6
102
}
330
2D6
100
AcDbXrecord
280
     1
102
RTVSPropertyOp0
 70
     1
102
RTVSPropertyOp1
 70
     1
102
RTVSPropertyOp2
 70
     1
102
RTVSPropertyOp3
 70
     1
102
RTVSPropertyOp4
 70
     1
102
RTVSPropertyOp5
 70
     1
102
RTVSPropertyOp6
 70
     1
102
RTVSPropertyOp7
 70
     1
102
RTVSPropertyOp8
 70
     1
102
RTVSPropertyOp9
 70
     1
102
RTVSPropertyOp10
 70
     1
102
RTVSPropertyOp11
 70
     1
102
RTVSPropertyOp12
 70
     1
102
RTVSPropertyOp13
 70
     1
102
RTVSPropertyOp14
 70
     1
102
RTVSPropertyOp15
 70
     1
102
RTVSPropertyOp16
 70
     1
102
RTVSPropertyOp17
 70
     1
102
RTVSPropertyOp18
 70
     1
102
RTVSPropertyOp19
 70
     1
102
RTVSPropertyOp20
 70
     1
102
RTVSPropertyOp21
 70
     1
102
RTVSPropertyOp22
 70
     1
102
RTVSPropertyOp23
 70
     1
102
RTVSPropertyOp24
 70
     1
102
RTVSPropertyOp25
 70
     1
102
RTVSPropertyOp26
 70
     1
102
RTVSPropertyOp27
 70
     1
102
RTVSPropertyOp28
 70
     1
102
RTVSPropertyOp29
 70
     1
102
RTVSPropertyOp30
 70
     1
102
RTVSPropertyOp31
 70
     1
102
RTVSPropertyOp32
 70
     1
102
RTVSPropertyOp33
 70
     1
102
RTVSPropertyOp34
 70
     1
102
RTVSPropertyOp35
 70
     1
102
RTVSPropertyOp36
 70
     1
102
RTVSPropertyOp37
 70
     1
102
RTVSPropertyOp38
 70
     1
102
RTVSPropertyOp39
 70
     1
102
RTVSPropertyOp40
 70
     1
102
RTVSPropertyOp41
 70
     1
102
RTVSPropertyOp42
 70
     1
102
RTVSPropertyOp43
 70
     1
102
RTVSPropertyOp44
 70
     1
102
RTVSPropertyOp45
 70
     1
102
RTVSPropertyOp46
 70
     1
102
RTVSPropertyOp47
 70
     1
102
RTVSPropertyOp48
 70
     1
102
RTVSPropertyOp49
 70
     1
102
RTVSPropertyOp50
 70
     1
102
RTVSPropertyOp51
 70
     0
102
RTVSPropertyOp52
 70
     0
102
RTVSPropertyOp53
 70
     1
102
RTVSPropertyOp54
 70
     1
102
RTVSPropertyOp55
 70
     1
102
RTVSPropertyOp56
 70
     1
102
RTVSPropertyOp57
 70
     1
102
RTVSPost2010Prop28
280
     0
102
RTVSPost2010PropOp28
 70
     1
102
RTVSPost2010Prop29
280
     1
102
RTVSPost2010PropOp29
 70
     1
102
RTVSPost2010Prop30
280
     1
102
RTVSPost2010PropOp30
 70
     1
102
RTVSPost2010Prop31
280
     0
102
RTVSPost2010PropOp31
 70
     1
102
RTVSPost2010Prop32
280
     0
102
RTVSPost2010PropOp32
 70
     1
102
RTVSPost2010Prop33
280
     0
102
RTVSPost2010PropOp33
 70
     1
102
RTVSPost2010Prop34
280
     0
102
RTVSPost2010PropOp34
 70
     1
102
RTVSPost2010Prop35
280
     0
102
RTVSPost2010PropOp35
 70
     1
102
RTVSPost2010Prop36
280
     0
102
RTVSPost2010PropOp36
 70
     1
102
RTVSPost2010Prop37
 90
       50
102
RTVSPost2010PropOp37
 70
     1
102
RTVSPost2010Prop38
140
0.0
102
RTVSPost2010PropOp38
 70
     1
102
RTVSPost2010Prop39
140
1.0
102
RTVSPost2010PropOp39
 70
     1
102
RTVSPost2010Prop40
 90
        0
102
RTVSPost2010PropOp40
 70
     1
102
RTVSPost2010Prop41ColorIndex
 90
       18
102
RTVSPost2010Prop41ColorRGB
 90
        0
102
RTVSPost2010PropOp41
 70
     1
102
RTVSPost2010Prop42
 90
       50
102
RTVSPost2010PropOp42
 70
     1
102
RTVSPost2010Prop43
 90
        3
102
RTVSPost2010PropOp43
 70
     1
102
RTVSPost2010Prop44ColorIndex
 90
        5
102
RTVSPost2010Prop44ColorRGB
 90
      255
102
RTVSPost2010PropOp44
 70
     1
102
RTVSPost2010Prop45
280
     0
102
RTVSPost2010PropOp45
 70
     1
102
RTVSPost2010Prop46
 90
       50
102
RTVSPost2010PropOp46
 70
     1
102
RTVSPost2010Prop47
 90
       50
102
RTVSPost2010PropOp47
 70
     1
102
RTVSPost2010Prop48
 90
       50
102
RTVSPost2010PropOp48
 70
     1
102
RTVSPost2010Prop49
280
     0
102
RTVSPost2010PropOp49
 70
     1
102
RTVSPost2010Prop50
 90
       50
102
RTVSPost2010PropOp50
 70
     1
102
RTVSPost2010Prop51ColorIndex
 90
      256
102
RTVSPost2010Prop51ColorRGB
 90
-16777216
102
RTVSPost2010PropOp51
 70
     0
102
RTVSPost2010Prop52
140
1.0
102
RTVSPost2010PropOp52
 70
     0
102
RTVSPost2010Prop53
 90
        2
102
RTVSPost2010PropOp53
 70
     1
102
RTVSPost2010Prop54
  1
strokes_ogs.tif
102
RTVSPost2010PropOp54
 70
     1
102
RTVSPost2010Prop55
280
     0
102
RTVSPost2010PropOp55
 70
     1
102
RTVSPost2010Prop56
140
1.0
102
RTVSPost2010PropOp56
 70
     1
102
RTVSPost2010Prop57
140
1.0
102
RTVSPost2010PropOp57
 70
     1
  0
XRECORD
  5
2CB
102
{ACAD_REACTORS
330
2CA
102
}
330
2CA
100
AcDbXrecord
280
     1
102
RTVSPropertyOp0
 70
     1
102
RTVSPropertyOp1
 70
     1
102
RTVSPropertyOp2
 70
     1
102
RTVSPropertyOp3
 70
     1
102
RTVSPropertyOp4
 70
     1
102
RTVSPropertyOp5
 70
     1
102
RTVSPropertyOp6
 70
     1
102
RTVSPropertyOp7
 70
     1
102
RTVSPropertyOp8
 70
     1
102
RTVSPropertyOp9
 70
     1
102
RTVSPropertyOp10
 70
     1
102
RTVSPropertyOp11
 70
     1
102
RTVSPropertyOp12
 70
     1
102
RTVSPropertyOp13
 70
     1
102
RTVSPropertyOp14
 70
     1
102
RTVSPropertyOp15
 70
     1
102
RTVSPropertyOp16
 70
     1
102
RTVSPropertyOp17
 70
     1
102
RTVSPropertyOp18
 70
     1
102
RTVSPropertyOp19
 70
     1
102
RTVSPropertyOp20
 70
     1
102
RTVSPropertyOp21
 70
     1
102
RTVSPropertyOp22
 70
     1
102
RTVSPropertyOp23
 70
     1
102
RTVSPropertyOp24
 70
     1
102
RTVSPropertyOp25
 70
     1
102
RTVSPropertyOp26
 70
     1
102
RTVSPropertyOp27
 70
     1
102
RTVSPropertyOp28
 70
     1
102
RTVSPropertyOp29
 70
     1
102
RTVSPropertyOp30
 70
     1
102
RTVSPropertyOp31
 70
     1
102
RTVSPropertyOp32
 70
     1
102
RTVSPropertyOp33
 70
     1
102
RTVSPropertyOp34
 70
     1
102
RTVSPropertyOp35
 70
     1
102
RTVSPropertyOp36
 70
     1
102
RTVSPropertyOp37
 70
     1
102
RTVSPropertyOp38
 70
     1
102
RTVSPropertyOp39
 70
     1
102
RTVSPropertyOp40
 70
     1
102
RTVSPropertyOp41
 70
     1
102
RTVSPropertyOp42
 70
     1
102
RTVSPropertyOp43
 70
     1
102
RTVSPropertyOp44
 70
     1
102
RTVSPropertyOp45
 70
     1
102
RTVSPropertyOp46
 70
     1
102
RTVSPropertyOp47
 70
     1
102
RTVSPropertyOp48
 70
     1
102
RTVSPropertyOp49
 70
     1
102
RTVSPropertyOp50
 70
     1
102
RTVSPropertyOp51
 70
     0
102
RTVSPropertyOp52
 70
     0
102
RTVSPropertyOp53
 70
     1
102
RTVSPropertyOp54
 70
     1
102
RTVSPropertyOp55
 70
     1
102
RTVSPropertyOp56
 70
     1
102
RTVSPropertyOp57
 70
     1
102
RTVSPost2010Prop28
280
     0
102
RTVSPost2010PropOp28
 70
     1
102
RTVSPost2010Prop29
280
     1
102
RTVSPost2010PropOp29
 70
     1
102
RTVSPost2010Prop30
280
     1
102
RTVSPost2010PropOp30
 70
     1
102
RTVSPost2010Prop31
280
     0
102
RTVSPost2010PropOp31
 70
     1
102
RTVSPost2010Prop32
280
     0
102
RTVSPost2010PropOp32
 70
     1
102
RTVSPost2010Prop33
280
     0
102
RTVSPost2010PropOp33
 70
     1
102
RTVSPost2010Prop34
280
     0
102
RTVSPost2010PropOp34
 70
     1
102
RTVSPost2010Prop35
280
     0
102
RTVSPost2010PropOp35
 70
     1
102
RTVSPost2010Prop36
280
     0
102
RTVSPost2010PropOp36
 70
     1
102
RTVSPost2010Prop37
 90
       50
102
RTVSPost2010PropOp37
 70
     1
102
RTVSPost2010Prop38
140
0.0
102
RTVSPost2010PropOp38
 70
     1
102
RTVSPost2010Prop39
140
1.0
102
RTVSPost2010PropOp39
 70
     1
102
RTVSPost2010Prop40
 90
        0
102
RTVSPost2010PropOp40
 70
     1
102
RTVSPost2010Prop41ColorIndex
 90
       18
102
RTVSPost2010Prop41ColorRGB
 90
        0
102
RTVSPost2010PropOp41
 70
     1
102
RTVSPost2010Prop42
 90
       50
102
RTVSPost2010PropOp42
 70
     1
102
RTVSPost2010Prop43
 90
        3
102
RTVSPost2010PropOp43
 70
     1
102
RTVSPost2010Prop44ColorIndex
 90
        5
102
RTVSPost2010Prop44ColorRGB
 90
      255
102
RTVSPost2010PropOp44
 70
     1
102
RTVSPost2010Prop45
280
     0
102
RTVSPost2010PropOp45
 70
     1
102
RTVSPost2010Prop46
 90
       50
102
RTVSPost2010PropOp46
 70
     1
102
RTVSPost2010Prop47
 90
       50
102
RTVSPost2010PropOp47
 70
     1
102
RTVSPost2010Prop48
 90
       50
102
RTVSPost2010PropOp48
 70
     1
102
RTVSPost2010Prop49
280
     0
102
RTVSPost2010PropOp49
 70
     1
102
RTVSPost2010Prop50
 90
       50
102
RTVSPost2010PropOp50
 70
     1
102
RTVSPost2010Prop51ColorIndex
 90
      256
102
RTVSPost2010Prop51ColorRGB
 90
-16777216
102
RTVSPost2010PropOp51
 70
     0
102
RTVSPost2010Prop52
140
1.0
102
RTVSPost2010PropOp52
 70
     0
102
RTVSPost2010Prop53
 90
        2
102
RTVSPost2010PropOp53
 70
     1
102
RTVSPost2010Prop54
  1
strokes_ogs.tif
102
RTVSPost2010PropOp54
 70
     1
102
RTVSPost2010Prop55
280
     0
102
RTVSPost2010PropOp55
 70
     1
102
RTVSPost2010Prop56
140
1.0
102
RTVSPost2010PropOp56
 70
     1
102
RTVSPost2010Prop57
140
1.0
102
RTVSPost2010PropOp57
 70
     1
  0
XRECORD
  5
2CD
102
{ACAD_REACTORS
330
2CC
102
}
330
2CC
100
AcDbXrecord
280
     1
102
RTVSPropertyOp0
 70
     1
102
RTVSPropertyOp1
 70
     1
102
RTVSPropertyOp2
 70
     1
102
RTVSPropertyOp3
 70
     1
102
RTVSPropertyOp4
 70
     1
102
RTVSPropertyOp5
 70
     1
102
RTVSPropertyOp6
 70
     1
102
RTVSPropertyOp7
 70
     1
102
RTVSPropertyOp8
 70
     1
102
RTVSPropertyOp9
 70
     1
102
RTVSPropertyOp10
 70
     1
102
RTVSPropertyOp11
 70
     1
102
RTVSPropertyOp12
 70
     1
102
RTVSPropertyOp13
 70
     1
102
RTVSPropertyOp14
 70
     1
102
RTVSPropertyOp15
 70
     1
102
RTVSPropertyOp16
 70
     1
102
RTVSPropertyOp17
 70
     1
102
RTVSPropertyOp18
 70
     1
102
RTVSPropertyOp19
 70
     1
102
RTVSPropertyOp20
 70
     1
102
RTVSPropertyOp21
 70
     1
102
RTVSPropertyOp22
 70
     1
102
RTVSPropertyOp23
 70
     1
102
RTVSPropertyOp24
 70
     1
102
RTVSPropertyOp25
 70
     1
102
RTVSPropertyOp26
 70
     1
102
RTVSPropertyOp27
 70
     1
102
RTVSPropertyOp28
 70
     1
102
RTVSPropertyOp29
 70
     1
102
RTVSPropertyOp30
 70
     1
102
RTVSPropertyOp31
 70
     1
102
RTVSPropertyOp32
 70
     1
102
RTVSPropertyOp33
 70
     1
102
RTVSPropertyOp34
 70
     1
102
RTVSPropertyOp35
 70
     1
102
RTVSPropertyOp36
 70
     1
102
RTVSPropertyOp37
 70
     1
102
RTVSPropertyOp38
 70
     1
102
RTVSPropertyOp39
 70
     1
102
RTVSPropertyOp40
 70
     1
102
RTVSPropertyOp41
 70
     1
102
RTVSPropertyOp42
 70
     1
102
RTVSPropertyOp43
 70
     1
102
RTVSPropertyOp44
 70
     1
102
RTVSPropertyOp45
 70
     1
102
RTVSPropertyOp46
 70
     1
102
RTVSPropertyOp47
 70
     1
102
RTVSPropertyOp48
 70
     1
102
RTVSPropertyOp49
 70
     1
102
RTVSPropertyOp50
 70
     1
102
RTVSPropertyOp51
 70
     0
102
RTVSPropertyOp52
 70
     0
102
RTVSPropertyOp53
 70
     1
102
RTVSPropertyOp54
 70
     1
102
RTVSPropertyOp55
 70
     1
102
RTVSPropertyOp56
 70
     1
102
RTVSPropertyOp57
 70
     1
102
RTVSPost2010Prop28
280
     0
102
RTVSPost2010PropOp28
 70
     1
102
RTVSPost2010Prop29
280
     1
102
RTVSPost2010PropOp29
 70
     1
102
RTVSPost2010Prop30
280
     1
102
RTVSPost2010PropOp30
 70
     1
102
RTVSPost2010Prop31
280
     0
102
RTVSPost2010PropOp31
 70
     1
102
RTVSPost2010Prop32
280
     0
102
RTVSPost2010PropOp32
 70
     1
102
RTVSPost2010Prop33
280
     0
102
RTVSPost2010PropOp33
 70
     1
102
RTVSPost2010Prop34
280
     0
102
RTVSPost2010PropOp34
 70
     1
102
RTVSPost2010Prop35
280
     0
102
RTVSPost2010PropOp35
 70
     1
102
RTVSPost2010Prop36
280
     0
102
RTVSPost2010PropOp36
 70
     1
102
RTVSPost2010Prop37
 90
       50
102
RTVSPost2010PropOp37
 70
     1
102
RTVSPost2010Prop38
140
0.0
102
RTVSPost2010PropOp38
 70
     1
102
RTVSPost2010Prop39
140
1.0
102
RTVSPost2010PropOp39
 70
     1
102
RTVSPost2010Prop40
 90
        0
102
RTVSPost2010PropOp40
 70
     1
102
RTVSPost2010Prop41ColorIndex
 90
       18
102
RTVSPost2010Prop41ColorRGB
 90
        0
102
RTVSPost2010PropOp41
 70
     1
102
RTVSPost2010Prop42
 90
       50
102
RTVSPost2010PropOp42
 70
     1
102
RTVSPost2010Prop43
 90
        3
102
RTVSPost2010PropOp43
 70
     1
102
RTVSPost2010Prop44ColorIndex
 90
        5
102
RTVSPost2010Prop44ColorRGB
 90
      255
102
RTVSPost2010PropOp44
 70
     1
102
RTVSPost2010Prop45
280
     0
102
RTVSPost2010PropOp45
 70
     1
102
RTVSPost2010Prop46
 90
       50
102
RTVSPost2010PropOp46
 70
     1
102
RTVSPost2010Prop47
 90
       50
102
RTVSPost2010PropOp47
 70
     1
102
RTVSPost2010Prop48
 90
       50
102
RTVSPost2010PropOp48
 70
     1
102
RTVSPost2010Prop49
280
     0
102
RTVSPost2010PropOp49
 70
     1
102
RTVSPost2010Prop50
 90
       50
102
RTVSPost2010PropOp50
 70
     1
102
RTVSPost2010Prop51ColorIndex
 90
      256
102
RTVSPost2010Prop51ColorRGB
 90
-16777216
102
RTVSPost2010PropOp51
 70
     0
102
RTVSPost2010Prop52
140
1.0
102
RTVSPost2010PropOp52
 70
     0
102
RTVSPost2010Prop53
 90
        2
102
RTVSPost2010PropOp53
 70
     1
102
RTVSPost2010Prop54
  1
strokes_ogs.tif
102
RTVSPost2010PropOp54
 70
     1
102
RTVSPost2010Prop55
280
     0
102
RTVSPost2010PropOp55
 70
     1
102
RTVSPost2010Prop56
140
1.0
102
RTVSPost2010PropOp56
 70
     1
102
RTVSPost2010Prop57
140
1.0
102
RTVSPost2010PropOp57
 70
     1
  0
XRECORD
  5
2DD
102
{ACAD_REACTORS
330
2DC
102
}
330
2DC
100
AcDbXrecord
280
     1
102
RTVSPropertyOp0
 70
     0
102
RTVSPropertyOp1
 70
     0
102
RTVSPropertyOp2
 70
     0
102
RTVSPropertyOp3
 70
     0
102
RTVSPropertyOp4
 70
     0
102
RTVSPropertyOp5
 70
     0
102
RTVSPropertyOp6
 70
     0
102
RTVSPropertyOp7
 70
     0
102
RTVSPropertyOp8
 70
     0
102
RTVSPropertyOp9
 70
     0
102
RTVSPropertyOp10
 70
     0
102
RTVSPropertyOp11
 70
     0
102
RTVSPropertyOp12
 70
     0
102
RTVSPropertyOp13
 70
     0
102
RTVSPropertyOp14
 70
     2
102
RTVSPropertyOp15
 70
     0
102
RTVSPropertyOp16
 70
     0
102
RTVSPropertyOp17
 70
     0
102
RTVSPropertyOp18
 70
     0
102
RTVSPropertyOp19
 70
     0
102
RTVSPropertyOp20
 70
     0
102
RTVSPropertyOp21
 70
     0
102
RTVSPropertyOp22
 70
     0
102
RTVSPropertyOp23
 70
     0
102
RTVSPropertyOp24
 70
     0
102
RTVSPropertyOp25
 70
     0
102
RTVSPropertyOp26
 70
     0
102
RTVSPropertyOp27
 70
     0
102
RTVSPropertyOp28
 70
     0
102
RTVSPropertyOp29
 70
     0
102
RTVSPropertyOp30
 70
     0
102
RTVSPropertyOp31
 70
     0
102
RTVSPropertyOp32
 70
     0
102
RTVSPropertyOp33
 70
     0
102
RTVSPropertyOp34
 70
     0
102
RTVSPropertyOp35
 70
     0
102
RTVSPropertyOp36
 70
     0
102
RTVSPropertyOp37
 70
     0
102
RTVSPropertyOp38
 70
     0
102
RTVSPropertyOp39
 70
     0
102
RTVSPropertyOp40
 70
     0
102
RTVSPropertyOp41
 70
     0
102
RTVSPropertyOp42
 70
     0
102
RTVSPropertyOp43
 70
     0
102
RTVSPropertyOp44
 70
     0
102
RTVSPropertyOp45
 70
     0
102
RTVSPropertyOp46
 70
     0
102
RTVSPropertyOp47
 70
     0
102
RTVSPropertyOp48
 70
     0
102
RTVSPropertyOp49
 70
     0
102
RTVSPropertyOp50
 70
     0
102
RTVSPropertyOp51
 70
     0
102
RTVSPropertyOp52
 70
     0
102
RTVSPropertyOp53
 70
     0
102
RTVSPropertyOp54
 70
     0
102
RTVSPropertyOp55
 70
     0
102
RTVSPropertyOp56
 70
     0
102
RTVSPropertyOp57
 70
     0
102
RTVSPost2010Prop28
280
     0
102
RTVSPost2010PropOp28
 70
     0
102
RTVSPost2010Prop29
280
     1
102
RTVSPost2010PropOp29
 70
     0
102
RTVSPost2010Prop30
280
     1
102
RTVSPost2010PropOp30
 70
     0
102
RTVSPost2010Prop31
280
     0
102
RTVSPost2010PropOp31
 70
     0
102
RTVSPost2010Prop32
280
     0
102
RTVSPost2010PropOp32
 70
     0
102
RTVSPost2010Prop33
280
     0
102
RTVSPost2010PropOp33
 70
     0
102
RTVSPost2010Prop34
280
     0
102
RTVSPost2010PropOp34
 70
     0
102
RTVSPost2010Prop35
280
     0
102
RTVSPost2010PropOp35
 70
     0
102
RTVSPost2010Prop36
280
     0
102
RTVSPost2010PropOp36
 70
     0
102
RTVSPost2010Prop37
 90
       50
102
RTVSPost2010PropOp37
 70
     0
102
RTVSPost2010Prop38
140
0.0
102
RTVSPost2010PropOp38
 70
     0
102
RTVSPost2010Prop39
140
1.0
102
RTVSPost2010PropOp39
 70
     0
102
RTVSPost2010Prop40
 90
        0
102
RTVSPost2010PropOp40
 70
     0
102
RTVSPost2010Prop41ColorIndex
 90
       18
102
RTVSPost2010Prop41ColorRGB
 90
        0
102
RTVSPost2010PropOp41
 70
     0
102
RTVSPost2010Prop42
 90
       50
102
RTVSPost2010PropOp42
 70
     0
102
RTVSPost2010Prop43
 90
        3
102
RTVSPost2010PropOp43
 70
     0
102
RTVSPost2010Prop44ColorIndex
 90
        5
102
RTVSPost2010Prop44ColorRGB
 90
      255
102
RTVSPost2010PropOp44
 70
     0
102
RTVSPost2010Prop45
280
     0
102
RTVSPost2010PropOp45
 70
     0
102
RTVSPost2010Prop46
 90
       50
102
RTVSPost2010PropOp46
 70
     0
102
RTVSPost2010Prop47
 90
       50
102
RTVSPost2010PropOp47
 70
     0
102
RTVSPost2010Prop48
 90
       50
102
RTVSPost2010PropOp48
 70
     0
102
RTVSPost2010Prop49
280
     0
102
RTVSPost2010PropOp49
 70
     0
102
RTVSPost2010Prop50
 90
       50
102
RTVSPost2010PropOp50
 70
     0
102
RTVSPost2010Prop51ColorIndex
 90
      256
102
RTVSPost2010Prop51ColorRGB
 90
-16777216
102
RTVSPost2010PropOp51
 70
     0
102
RTVSPost2010Prop52
140
1.0
102
RTVSPost2010PropOp52
 70
     0
102
RTVSPost2010Prop53
 90
        2
102
RTVSPost2010PropOp53
 70
     0
102
RTVSPost2010Prop54
  1
strokes_ogs.tif
102
RTVSPost2010PropOp54
 70
     0
102
RTVSPost2010Prop55
280
     0
102
RTVSPost2010PropOp55
 70
     0
102
RTVSPost2010Prop56
140
1.0
102
RTVSPost2010PropOp56
 70
     0
102
RTVSPost2010Prop57
140
1.0
102
RTVSPost2010PropOp57
 70
     0
  0
XRECORD
  5
2D5
102
{ACAD_REACTORS
330
2D4
102
}
330
2D4
100
AcDbXrecord
280
     1
102
RTVSPropertyOp0
 70
     1
102
RTVSPropertyOp1
 70
     1
102
RTVSPropertyOp2
 70
     1
102
RTVSPropertyOp3
 70
     1
102
RTVSPropertyOp4
 70
     1
102
RTVSPropertyOp5
 70
     1
102
RTVSPropertyOp6
 70
     1
102
RTVSPropertyOp7
 70
     1
102
RTVSPropertyOp8
 70
     1
102
RTVSPropertyOp9
 70
     1
102
RTVSPropertyOp10
 70
     1
102
RTVSPropertyOp11
 70
     1
102
RTVSPropertyOp12
 70
     1
102
RTVSPropertyOp13
 70
     1
102
RTVSPropertyOp14
 70
     1
102
RTVSPropertyOp15
 70
     1
102
RTVSPropertyOp16
 70
     1
102
RTVSPropertyOp17
 70
     1
102
RTVSPropertyOp18
 70
     1
102
RTVSPropertyOp19
 70
     1
102
RTVSPropertyOp20
 70
     1
102
RTVSPropertyOp21
 70
     1
102
RTVSPropertyOp22
 70
     1
102
RTVSPropertyOp23
 70
     1
102
RTVSPropertyOp24
 70
     1
102
RTVSPropertyOp25
 70
     1
102
RTVSPropertyOp26
 70
     1
102
RTVSPropertyOp27
 70
     1
102
RTVSPropertyOp28
 70
     1
102
RTVSPropertyOp29
 70
     1
102
RTVSPropertyOp30
 70
     1
102
RTVSPropertyOp31
 70
     1
102
RTVSPropertyOp32
 70
     1
102
RTVSPropertyOp33
 70
     1
102
RTVSPropertyOp34
 70
     1
102
RTVSPropertyOp35
 70
     1
102
RTVSPropertyOp36
 70
     1
102
RTVSPropertyOp37
 70
     1
102
RTVSPropertyOp38
 70
     1
102
RTVSPropertyOp39
 70
     1
102
RTVSPropertyOp40
 70
     1
102
RTVSPropertyOp41
 70
     1
102
RTVSPropertyOp42
 70
     1
102
RTVSPropertyOp43
 70
     1
102
RTVSPropertyOp44
 70
     1
102
RTVSPropertyOp45
 70
     1
102
RTVSPropertyOp46
 70
     1
102
RTVSPropertyOp47
 70
     1
102
RTVSPropertyOp48
 70
     1
102
RTVSPropertyOp49
 70
     1
102
RTVSPropertyOp50
 70
     1
102
RTVSPropertyOp51
 70
     0
102
RTVSPropertyOp52
 70
     0
102
RTVSPropertyOp53
 70
     1
102
RTVSPropertyOp54
 70
     1
102
RTVSPropertyOp55
 70
     1
102
RTVSPropertyOp56
 70
     1
102
RTVSPropertyOp57
 70
     1
102
RTVSPost2010Prop28
280
     0
102
RTVSPost2010PropOp28
 70
     1
102
RTVSPost2010Prop29
280
     1
102
RTVSPost2010PropOp29
 70
     1
102
RTVSPost2010Prop30
280
     1
102
RTVSPost2010PropOp30
 70
     1
102
RTVSPost2010Prop31
280
     0
102
RTVSPost2010PropOp31
 70
     1
102
RTVSPost2010Prop32
280
     0
102
RTVSPost2010PropOp32
 70
     1
102
RTVSPost2010Prop33
280
     0
102
RTVSPost2010PropOp33
 70
     1
102
RTVSPost2010Prop34
280
     0
102
RTVSPost2010PropOp34
 70
     1
102
RTVSPost2010Prop35
280
     0
102
RTVSPost2010PropOp35
 70
     1
102
RTVSPost2010Prop36
280
     0
102
RTVSPost2010PropOp36
 70
     1
102
RTVSPost2010Prop37
 90
       50
102
RTVSPost2010PropOp37
 70
     1
102
RTVSPost2010Prop38
140
0.0
102
RTVSPost2010PropOp38
 70
     1
102
RTVSPost2010Prop39
140
1.0
102
RTVSPost2010PropOp39
 70
     1
102
RTVSPost2010Prop40
 90
        0
102
RTVSPost2010PropOp40
 70
     1
102
RTVSPost2010Prop41ColorIndex
 90
       18
102
RTVSPost2010Prop41ColorRGB
 90
        0
102
RTVSPost2010PropOp41
 70
     1
102
RTVSPost2010Prop42
 90
       50
102
RTVSPost2010PropOp42
 70
     1
102
RTVSPost2010Prop43
 90
        3
102
RTVSPost2010PropOp43
 70
     1
102
RTVSPost2010Prop44ColorIndex
 90
        5
102
RTVSPost2010Prop44ColorRGB
 90
      255
102
RTVSPost2010PropOp44
 70
     1
102
RTVSPost2010Prop45
280
     0
102
RTVSPost2010PropOp45
 70
     1
102
RTVSPost2010Prop46
 90
       50
102
RTVSPost2010PropOp46
 70
     1
102
RTVSPost2010Prop47
 90
       50
102
RTVSPost2010PropOp47
 70
     1
102
RTVSPost2010Prop48
 90
       50
102
RTVSPost2010PropOp48
 70
     1
102
RTVSPost2010Prop49
280
     0
102
RTVSPost2010PropOp49
 70
     1
102
RTVSPost2010Prop50
 90
       50
102
RTVSPost2010PropOp50
 70
     1
102
RTVSPost2010Prop51ColorIndex
 90
      256
102
RTVSPost2010Prop51ColorRGB
 90
-16777216
102
RTVSPost2010PropOp51
 70
     0
102
RTVSPost2010Prop52
140
1.0
102
RTVSPost2010PropOp52
 70
     0
102
RTVSPost2010Prop53
 90
        2
102
RTVSPost2010PropOp53
 70
     1
102
RTVSPost2010Prop54
  1
strokes_ogs.tif
102
RTVSPost2010PropOp54
 70
     1
102
RTVSPost2010Prop55
280
     0
102
RTVSPost2010PropOp55
 70
     1
102
RTVSPost2010Prop56
140
1.0
102
RTVSPost2010PropOp56
 70
     1
102
RTVSPost2010Prop57
140
1.0
102
RTVSPost2010PropOp57
 70
     1
  0
XRECORD
  5
2B9
102
{ACAD_REACTORS
330
2B8
102
}
330
2B8
100
AcDbXrecord
280
     1
102
RTVSPropertyOp0
 70
     1
102
RTVSPropertyOp1
 70
     1
102
RTVSPropertyOp2
 70
     1
102
RTVSPropertyOp3
 70
     1
102
RTVSPropertyOp4
 70
     1
102
RTVSPropertyOp5
 70
     1
102
RTVSPropertyOp6
 70
     1
102
RTVSPropertyOp7
 70
     1
102
RTVSPropertyOp8
 70
     1
102
RTVSPropertyOp9
 70
     1
102
RTVSPropertyOp10
 70
     1
102
RTVSPropertyOp11
 70
     1
102
RTVSPropertyOp12
 70
     1
102
RTVSPropertyOp13
 70
     1
102
RTVSPropertyOp14
 70
     1
102
RTVSPropertyOp15
 70
     1
102
RTVSPropertyOp16
 70
     1
102
RTVSPropertyOp17
 70
     1
102
RTVSPropertyOp18
 70
     1
102
RTVSPropertyOp19
 70
     1
102
RTVSPropertyOp20
 70
     1
102
RTVSPropertyOp21
 70
     1
102
RTVSPropertyOp22
 70
     1
102
RTVSPropertyOp23
 70
     1
102
RTVSPropertyOp24
 70
     1
102
RTVSPropertyOp25
 70
     1
102
RTVSPropertyOp26
 70
     1
102
RTVSPropertyOp27
 70
     1
102
RTVSPropertyOp28
 70
     1
102
RTVSPropertyOp29
 70
     1
102
RTVSPropertyOp30
 70
     1
102
RTVSPropertyOp31
 70
     1
102
RTVSPropertyOp32
 70
     1
102
RTVSPropertyOp33
 70
     1
102
RTVSPropertyOp34
 70
     1
102
RTVSPropertyOp35
 70
     1
102
RTVSPropertyOp36
 70
     1
102
RTVSPropertyOp37
 70
     1
102
RTVSPropertyOp38
 70
     1
102
RTVSPropertyOp39
 70
     1
102
RTVSPropertyOp40
 70
     1
102
RTVSPropertyOp41
 70
     1
102
RTVSPropertyOp42
 70
     1
102
RTVSPropertyOp43
 70
     1
102
RTVSPropertyOp44
 70
     1
102
RTVSPropertyOp45
 70
     1
102
RTVSPropertyOp46
 70
     1
102
RTVSPropertyOp47
 70
     1
102
RTVSPropertyOp48
 70
     1
102
RTVSPropertyOp49
 70
     1
102
RTVSPropertyOp50
 70
     1
102
RTVSPropertyOp51
 70
     0
102
RTVSPropertyOp52
 70
     0
102
RTVSPropertyOp53
 70
     1
102
RTVSPropertyOp54
 70
     1
102
RTVSPropertyOp55
 70
     1
102
RTVSPropertyOp56
 70
     1
102
RTVSPropertyOp57
 70
     1
102
RTVSPost2010Prop28
280
     0
102
RTVSPost2010PropOp28
 70
     1
102
RTVSPost2010Prop29
280
     1
102
RTVSPost2010PropOp29
 70
     1
102
RTVSPost2010Prop30
280
     1
102
RTVSPost2010PropOp30
 70
     1
102
RTVSPost2010Prop31
280
     0
102
RTVSPost2010PropOp31
 70
     1
102
RTVSPost2010Prop32
280
     0
102
RTVSPost2010PropOp32
 70
     1
102
RTVSPost2010Prop33
280
     0
102
RTVSPost2010PropOp33
 70
     1
102
RTVSPost2010Prop34
280
     0
102
RTVSPost2010PropOp34
 70
     1
102
RTVSPost2010Prop35
280
     0
102
RTVSPost2010PropOp35
 70
     1
102
RTVSPost2010Prop36
280
     0
102
RTVSPost2010PropOp36
 70
     1
102
RTVSPost2010Prop37
 90
       50
102
RTVSPost2010PropOp37
 70
     1
102
RTVSPost2010Prop38
140
0.0
102
RTVSPost2010PropOp38
 70
     1
102
RTVSPost2010Prop39
140
1.0
102
RTVSPost2010PropOp39
 70
     1
102
RTVSPost2010Prop40
 90
        0
102
RTVSPost2010PropOp40
 70
     1
102
RTVSPost2010Prop41ColorIndex
 90
       18
102
RTVSPost2010Prop41ColorRGB
 90
        0
102
RTVSPost2010PropOp41
 70
     1
102
RTVSPost2010Prop42
 90
       50
102
RTVSPost2010PropOp42
 70
     1
102
RTVSPost2010Prop43
 90
        3
102
RTVSPost2010PropOp43
 70
     1
102
RTVSPost2010Prop44ColorIndex
 90
        5
102
RTVSPost2010Prop44ColorRGB
 90
      255
102
RTVSPost2010PropOp44
 70
     1
102
RTVSPost2010Prop45
280
     0
102
RTVSPost2010PropOp45
 70
     1
102
RTVSPost2010Prop46
 90
       50
102
RTVSPost2010PropOp46
 70
     1
102
RTVSPost2010Prop47
 90
       50
102
RTVSPost2010PropOp47
 70
     1
102
RTVSPost2010Prop48
 90
       50
102
RTVSPost2010PropOp48
 70
     1
102
RTVSPost2010Prop49
280
     0
102
RTVSPost2010PropOp49
 70
     1
102
RTVSPost2010Prop50
 90
       50
102
RTVSPost2010PropOp50
 70
     1
102
RTVSPost2010Prop51ColorIndex
 90
      256
102
RTVSPost2010Prop51ColorRGB
 90
-16777216
102
RTVSPost2010PropOp51
 70
     0
102
RTVSPost2010Prop52
140
1.0
102
RTVSPost2010PropOp52
 70
     0
102
RTVSPost2010Prop53
 90
        2
102
RTVSPost2010PropOp53
 70
     1
102
RTVSPost2010Prop54
  1
strokes_ogs.tif
102
RTVSPost2010PropOp54
 70
     1
102
RTVSPost2010Prop55
280
     0
102
RTVSPost2010PropOp55
 70
     1
102
RTVSPost2010Prop56
140
1.0
102
RTVSPost2010PropOp56
 70
     1
102
RTVSPost2010Prop57
140
1.0
102
RTVSPost2010PropOp57
 70
     1
  0
XRECORD
  5
2BB
102
{ACAD_REACTORS
330
2BA
102
}
330
2BA
100
AcDbXrecord
280
     1
102
RTVSPropertyOp0
 70
     1
102
RTVSPropertyOp1
 70
     1
102
RTVSPropertyOp2
 70
     1
102
RTVSPropertyOp3
 70
     1
102
RTVSPropertyOp4
 70
     1
102
RTVSPropertyOp5
 70
     1
102
RTVSPropertyOp6
 70
     1
102
RTVSPropertyOp7
 70
     1
102
RTVSPropertyOp8
 70
     1
102
RTVSPropertyOp9
 70
     1
102
RTVSPropertyOp10
 70
     1
102
RTVSPropertyOp11
 70
     1
102
RTVSPropertyOp12
 70
     1
102
RTVSPropertyOp13
 70
     1
102
RTVSPropertyOp14
 70
     1
102
RTVSPropertyOp15
 70
     1
102
RTVSPropertyOp16
 70
     1
102
RTVSPropertyOp17
 70
     1
102
RTVSPropertyOp18
 70
     1
102
RTVSPropertyOp19
 70
     1
102
RTVSPropertyOp20
 70
     1
102
RTVSPropertyOp21
 70
     1
102
RTVSPropertyOp22
 70
     1
102
RTVSPropertyOp23
 70
     1
102
RTVSPropertyOp24
 70
     1
102
RTVSPropertyOp25
 70
     1
102
RTVSPropertyOp26
 70
     1
102
RTVSPropertyOp27
 70
     1
102
RTVSPropertyOp28
 70
     1
102
RTVSPropertyOp29
 70
     1
102
RTVSPropertyOp30
 70
     1
102
RTVSPropertyOp31
 70
     1
102
RTVSPropertyOp32
 70
     1
102
RTVSPropertyOp33
 70
     1
102
RTVSPropertyOp34
 70
     1
102
RTVSPropertyOp35
 70
     1
102
RTVSPropertyOp36
 70
     1
102
RTVSPropertyOp37
 70
     1
102
RTVSPropertyOp38
 70
     1
102
RTVSPropertyOp39
 70
     1
102
RTVSPropertyOp40
 70
     1
102
RTVSPropertyOp41
 70
     1
102
RTVSPropertyOp42
 70
     1
102
RTVSPropertyOp43
 70
     1
102
RTVSPropertyOp44
 70
     1
102
RTVSPropertyOp45
 70
     1
102
RTVSPropertyOp46
 70
     1
102
RTVSPropertyOp47
 70
     1
102
RTVSPropertyOp48
 70
     1
102
RTVSPropertyOp49
 70
     1
102
RTVSPropertyOp50
 70
     1
102
RTVSPropertyOp51
 70
     0
102
RTVSPropertyOp52
 70
     0
102
RTVSPropertyOp53
 70
     1
102
RTVSPropertyOp54
 70
     1
102
RTVSPropertyOp55
 70
     1
102
RTVSPropertyOp56
 70
     1
102
RTVSPropertyOp57
 70
     1
102
RTVSPost2010Prop28
280
     0
102
RTVSPost2010PropOp28
 70
     1
102
RTVSPost2010Prop29
280
     1
102
RTVSPost2010PropOp29
 70
     1
102
RTVSPost2010Prop30
280
     1
102
RTVSPost2010PropOp30
 70
     1
102
RTVSPost2010Prop31
280
     0
102
RTVSPost2010PropOp31
 70
     1
102
RTVSPost2010Prop32
280
     0
102
RTVSPost2010PropOp32
 70
     1
102
RTVSPost2010Prop33
280
     0
102
RTVSPost2010PropOp33
 70
     1
102
RTVSPost2010Prop34
280
     0
102
RTVSPost2010PropOp34
 70
     1
102
RTVSPost2010Prop35
280
     0
102
RTVSPost2010PropOp35
 70
     1
102
RTVSPost2010Prop36
280
     0
102
RTVSPost2010PropOp36
 70
     1
102
RTVSPost2010Prop37
 90
       50
102
RTVSPost2010PropOp37
 70
     1
102
RTVSPost2010Prop38
140
0.0
102
RTVSPost2010PropOp38
 70
     1
102
RTVSPost2010Prop39
140
1.0
102
RTVSPost2010PropOp39
 70
     1
102
RTVSPost2010Prop40
 90
        0
102
RTVSPost2010PropOp40
 70
     1
102
RTVSPost2010Prop41ColorIndex
 90
       18
102
RTVSPost2010Prop41ColorRGB
 90
        0
102
RTVSPost2010PropOp41
 70
     1
102
RTVSPost2010Prop42
 90
       50
102
RTVSPost2010PropOp42
 70
     1
102
RTVSPost2010Prop43
 90
        3
102
RTVSPost2010PropOp43
 70
     1
102
RTVSPost2010Prop44ColorIndex
 90
        5
102
RTVSPost2010Prop44ColorRGB
 90
      255
102
RTVSPost2010PropOp44
 70
     1
102
RTVSPost2010Prop45
280
     0
102
RTVSPost2010PropOp45
 70
     1
102
RTVSPost2010Prop46
 90
       50
102
RTVSPost2010PropOp46
 70
     1
102
RTVSPost2010Prop47
 90
       50
102
RTVSPost2010PropOp47
 70
     1
102
RTVSPost2010Prop48
 90
       50
102
RTVSPost2010PropOp48
 70
     1
102
RTVSPost2010Prop49
280
     0
102
RTVSPost2010PropOp49
 70
     1
102
RTVSPost2010Prop50
 90
       50
102
RTVSPost2010PropOp50
 70
     1
102
RTVSPost2010Prop51ColorIndex
 90
      256
102
RTVSPost2010Prop51ColorRGB
 90
-16777216
102
RTVSPost2010PropOp51
 70
     0
102
RTVSPost2010Prop52
140
1.0
102
RTVSPost2010PropOp52
 70
     0
102
RTVSPost2010Prop53
 90
        2
102
RTVSPost2010PropOp53
 70
     1
102
RTVSPost2010Prop54
  1
strokes_ogs.tif
102
RTVSPost2010PropOp54
 70
     1
102
RTVSPost2010Prop55
280
     0
102
RTVSPost2010PropOp55
 70
     1
102
RTVSPost2010Prop56
140
1.0
102
RTVSPost2010PropOp56
 70
     1
102
RTVSPost2010Prop57
140
1.0
102
RTVSPost2010PropOp57
 70
     1
  0
XRECORD
  5
2BD
102
{ACAD_REACTORS
330
2BC
102
}
330
2BC
100
AcDbXrecord
280
     1
102
RTVSPropertyOp0
 70
     1
102
RTVSPropertyOp1
 70
     1
102
RTVSPropertyOp2
 70
     1
102
RTVSPropertyOp3
 70
     1
102
RTVSPropertyOp4
 70
     1
102
RTVSPropertyOp5
 70
     1
102
RTVSPropertyOp6
 70
     1
102
RTVSPropertyOp7
 70
     1
102
RTVSPropertyOp8
 70
     1
102
RTVSPropertyOp9
 70
     1
102
RTVSPropertyOp10
 70
     1
102
RTVSPropertyOp11
 70
     1
102
RTVSPropertyOp12
 70
     1
102
RTVSPropertyOp13
 70
     1
102
RTVSPropertyOp14
 70
     1
102
RTVSPropertyOp15
 70
     1
102
RTVSPropertyOp16
 70
     1
102
RTVSPropertyOp17
 70
     1
102
RTVSPropertyOp18
 70
     1
102
RTVSPropertyOp19
 70
     1
102
RTVSPropertyOp20
 70
     1
102
RTVSPropertyOp21
 70
     1
102
RTVSPropertyOp22
 70
     1
102
RTVSPropertyOp23
 70
     1
102
RTVSPropertyOp24
 70
     1
102
RTVSPropertyOp25
 70
     1
102
RTVSPropertyOp26
 70
     1
102
RTVSPropertyOp27
 70
     1
102
RTVSPropertyOp28
 70
     1
102
RTVSPropertyOp29
 70
     1
102
RTVSPropertyOp30
 70
     1
102
RTVSPropertyOp31
 70
     1
102
RTVSPropertyOp32
 70
     1
102
RTVSPropertyOp33
 70
     1
102
RTVSPropertyOp34
 70
     1
102
RTVSPropertyOp35
 70
     1
102
RTVSPropertyOp36
 70
     1
102
RTVSPropertyOp37
 70
     1
102
RTVSPropertyOp38
 70
     1
102
RTVSPropertyOp39
 70
     1
102
RTVSPropertyOp40
 70
     1
102
RTVSPropertyOp41
 70
     1
102
RTVSPropertyOp42
 70
     1
102
RTVSPropertyOp43
 70
     1
102
RTVSPropertyOp44
 70
     1
102
RTVSPropertyOp45
 70
     1
102
RTVSPropertyOp46
 70
     1
102
RTVSPropertyOp47
 70
     1
102
RTVSPropertyOp48
 70
     1
102
RTVSPropertyOp49
 70
     1
102
RTVSPropertyOp50
 70
     1
102
RTVSPropertyOp51
 70
     0
102
RTVSPropertyOp52
 70
     0
102
RTVSPropertyOp53
 70
     1
102
RTVSPropertyOp54
 70
     1
102
RTVSPropertyOp55
 70
     1
102
RTVSPropertyOp56
 70
     1
102
RTVSPropertyOp57
 70
     1
102
RTVSPost2010Prop28
280
     0
102
RTVSPost2010PropOp28
 70
     1
102
RTVSPost2010Prop29
280
     1
102
RTVSPost2010PropOp29
 70
     1
102
RTVSPost2010Prop30
280
     1
102
RTVSPost2010PropOp30
 70
     1
102
RTVSPost2010Prop31
280
     0
102
RTVSPost2010PropOp31
 70
     1
102
RTVSPost2010Prop32
280
     0
102
RTVSPost2010PropOp32
 70
     1
102
RTVSPost2010Prop33
280
     0
102
RTVSPost2010PropOp33
 70
     1
102
RTVSPost2010Prop34
280
     0
102
RTVSPost2010PropOp34
 70
     1
102
RTVSPost2010Prop35
280
     0
102
RTVSPost2010PropOp35
 70
     1
102
RTVSPost2010Prop36
280
     0
102
RTVSPost2010PropOp36
 70
     1
102
RTVSPost2010Prop37
 90
       50
102
RTVSPost2010PropOp37
 70
     1
102
RTVSPost2010Prop38
140
0.0
102
RTVSPost2010PropOp38
 70
     1
102
RTVSPost2010Prop39
140
1.0
102
RTVSPost2010PropOp39
 70
     1
102
RTVSPost2010Prop40
 90
        0
102
RTVSPost2010PropOp40
 70
     1
102
RTVSPost2010Prop41ColorIndex
 90
       18
102
RTVSPost2010Prop41ColorRGB
 90
        0
102
RTVSPost2010PropOp41
 70
     1
102
RTVSPost2010Prop42
 90
       50
102
RTVSPost2010PropOp42
 70
     1
102
RTVSPost2010Prop43
 90
        3
102
RTVSPost2010PropOp43
 70
     1
102
RTVSPost2010Prop44ColorIndex
 90
        5
102
RTVSPost2010Prop44ColorRGB
 90
      255
102
RTVSPost2010PropOp44
 70
     1
102
RTVSPost2010Prop45
280
     0
102
RTVSPost2010PropOp45
 70
     1
102
RTVSPost2010Prop46
 90
       50
102
RTVSPost2010PropOp46
 70
     1
102
RTVSPost2010Prop47
 90
       50
102
RTVSPost2010PropOp47
 70
     1
102
RTVSPost2010Prop48
 90
       50
102
RTVSPost2010PropOp48
 70
     1
102
RTVSPost2010Prop49
280
     0
102
RTVSPost2010PropOp49
 70
     1
102
RTVSPost2010Prop50
 90
       50
102
RTVSPost2010PropOp50
 70
     1
102
RTVSPost2010Prop51ColorIndex
 90
      256
102
RTVSPost2010Prop51ColorRGB
 90
-16777216
102
RTVSPost2010PropOp51
 70
     0
102
RTVSPost2010Prop52
140
1.0
102
RTVSPost2010PropOp52
 70
     0
102
RTVSPost2010Prop53
 90
        2
102
RTVSPost2010PropOp53
 70
     1
102
RTVSPost2010Prop54
  1
strokes_ogs.tif
102
RTVSPost2010PropOp54
 70
     1
102
RTVSPost2010Prop55
280
     0
102
RTVSPost2010PropOp55
 70
     1
102
RTVSPost2010Prop56
140
1.0
102
RTVSPost2010PropOp56
 70
     1
102
RTVSPost2010Prop57
140
1.0
102
RTVSPost2010PropOp57
 70
     1
  0
XRECORD
  5
2BF
102
{ACAD_REACTORS
330
2BE
102
}
330
2BE
100
AcDbXrecord
280
     1
102
RTVSPropertyOp0
 70
     1
102
RTVSPropertyOp1
 70
     1
102
RTVSPropertyOp2
 70
     1
102
RTVSPropertyOp3
 70
     1
102
RTVSPropertyOp4
 70
     1
102
RTVSPropertyOp5
 70
     1
102
RTVSPropertyOp6
 70
     1
102
RTVSPropertyOp7
 70
     1
102
RTVSPropertyOp8
 70
     1
102
RTVSPropertyOp9
 70
     1
102
RTVSPropertyOp10
 70
     1
102
RTVSPropertyOp11
 70
     1
102
RTVSPropertyOp12
 70
     1
102
RTVSPropertyOp13
 70
     1
102
RTVSPropertyOp14
 70
     1
102
RTVSPropertyOp15
 70
     1
102
RTVSPropertyOp16
 70
     1
102
RTVSPropertyOp17
 70
     1
102
RTVSPropertyOp18
 70
     1
102
RTVSPropertyOp19
 70
     1
102
RTVSPropertyOp20
 70
     1
102
RTVSPropertyOp21
 70
     1
102
RTVSPropertyOp22
 70
     1
102
RTVSPropertyOp23
 70
     1
102
RTVSPropertyOp24
 70
     1
102
RTVSPropertyOp25
 70
     1
102
RTVSPropertyOp26
 70
     1
102
RTVSPropertyOp27
 70
     1
102
RTVSPropertyOp28
 70
     1
102
RTVSPropertyOp29
 70
     1
102
RTVSPropertyOp30
 70
     1
102
RTVSPropertyOp31
 70
     1
102
RTVSPropertyOp32
 70
     1
102
RTVSPropertyOp33
 70
     1
102
RTVSPropertyOp34
 70
     1
102
RTVSPropertyOp35
 70
     1
102
RTVSPropertyOp36
 70
     1
102
RTVSPropertyOp37
 70
     1
102
RTVSPropertyOp38
 70
     1
102
RTVSPropertyOp39
 70
     1
102
RTVSPropertyOp40
 70
     1
102
RTVSPropertyOp41
 70
     1
102
RTVSPropertyOp42
 70
     1
102
RTVSPropertyOp43
 70
     1
102
RTVSPropertyOp44
 70
     1
102
RTVSPropertyOp45
 70
     1
102
RTVSPropertyOp46
 70
     1
102
RTVSPropertyOp47
 70
     1
102
RTVSPropertyOp48
 70
     1
102
RTVSPropertyOp49
 70
     1
102
RTVSPropertyOp50
 70
     1
102
RTVSPropertyOp51
 70
     0
102
RTVSPropertyOp52
 70
     0
102
RTVSPropertyOp53
 70
     1
102
RTVSPropertyOp54
 70
     1
102
RTVSPropertyOp55
 70
     1
102
RTVSPropertyOp56
 70
     1
102
RTVSPropertyOp57
 70
     1
102
RTVSPost2010Prop28
280
     0
102
RTVSPost2010PropOp28
 70
     1
102
RTVSPost2010Prop29
280
     1
102
RTVSPost2010PropOp29
 70
     1
102
RTVSPost2010Prop30
280
     1
102
RTVSPost2010PropOp30
 70
     1
102
RTVSPost2010Prop31
280
     0
102
RTVSPost2010PropOp31
 70
     1
102
RTVSPost2010Prop32
280
     0
102
RTVSPost2010PropOp32
 70
     1
102
RTVSPost2010Prop33
280
     0
102
RTVSPost2010PropOp33
 70
     1
102
RTVSPost2010Prop34
280
     0
102
RTVSPost2010PropOp34
 70
     1
102
RTVSPost2010Prop35
280
     0
102
RTVSPost2010PropOp35
 70
     1
102
RTVSPost2010Prop36
280
     0
102
RTVSPost2010PropOp36
 70
     1
102
RTVSPost2010Prop37
 90
       50
102
RTVSPost2010PropOp37
 70
     1
102
RTVSPost2010Prop38
140
0.0
102
RTVSPost2010PropOp38
 70
     1
102
RTVSPost2010Prop39
140
1.0
102
RTVSPost2010PropOp39
 70
     1
102
RTVSPost2010Prop40
 90
        0
102
RTVSPost2010PropOp40
 70
     1
102
RTVSPost2010Prop41ColorIndex
 90
       18
102
RTVSPost2010Prop41ColorRGB
 90
        0
102
RTVSPost2010PropOp41
 70
     1
102
RTVSPost2010Prop42
 90
       50
102
RTVSPost2010PropOp42
 70
     1
102
RTVSPost2010Prop43
 90
        3
102
RTVSPost2010PropOp43
 70
     1
102
RTVSPost2010Prop44ColorIndex
 90
        5
102
RTVSPost2010Prop44ColorRGB
 90
      255
102
RTVSPost2010PropOp44
 70
     1
102
RTVSPost2010Prop45
280
     0
102
RTVSPost2010PropOp45
 70
     1
102
RTVSPost2010Prop46
 90
       50
102
RTVSPost2010PropOp46
 70
     1
102
RTVSPost2010Prop47
 90
       50
102
RTVSPost2010PropOp47
 70
     1
102
RTVSPost2010Prop48
 90
       50
102
RTVSPost2010PropOp48
 70
     1
102
RTVSPost2010Prop49
280
     0
102
RTVSPost2010PropOp49
 70
     1
102
RTVSPost2010Prop50
 90
       50
102
RTVSPost2010PropOp50
 70
     1
102
RTVSPost2010Prop51ColorIndex
 90
      256
102
RTVSPost2010Prop51ColorRGB
 90
-16777216
102
RTVSPost2010PropOp51
 70
     0
102
RTVSPost2010Prop52
140
1.0
102
RTVSPost2010PropOp52
 70
     0
102
RTVSPost2010Prop53
 90
        2
102
RTVSPost2010PropOp53
 70
     1
102
RTVSPost2010Prop54
  1
strokes_ogs.tif
102
RTVSPost2010PropOp54
 70
     1
102
RTVSPost2010Prop55
280
     0
102
RTVSPost2010PropOp55
 70
     1
102
RTVSPost2010Prop56
140
1.0
102
RTVSPost2010PropOp56
 70
     1
102
RTVSPost2010Prop57
140
1.0
102
RTVSPost2010PropOp57
 70
     1
  0
XRECORD
  5
2C5
102
{ACAD_REACTORS
330
2C4
102
}
330
2C4
100
AcDbXrecord
280
     1
102
RTVSPropertyOp0
 70
     1
102
RTVSPropertyOp1
 70
     1
102
RTVSPropertyOp2
 70
     1
102
RTVSPropertyOp3
 70
     1
102
RTVSPropertyOp4
 70
     1
102
RTVSPropertyOp5
 70
     1
102
RTVSPropertyOp6
 70
     1
102
RTVSPropertyOp7
 70
     1
102
RTVSPropertyOp8
 70
     1
102
RTVSPropertyOp9
 70
     1
102
RTVSPropertyOp10
 70
     1
102
RTVSPropertyOp11
 70
     1
102
RTVSPropertyOp12
 70
     1
102
RTVSPropertyOp13
 70
     1
102
RTVSPropertyOp14
 70
     1
102
RTVSPropertyOp15
 70
     1
102
RTVSPropertyOp16
 70
     1
102
RTVSPropertyOp17
 70
     1
102
RTVSPropertyOp18
 70
     1
102
RTVSPropertyOp19
 70
     1
102
RTVSPropertyOp20
 70
     1
102
RTVSPropertyOp21
 70
     1
102
RTVSPropertyOp22
 70
     1
102
RTVSPropertyOp23
 70
     1
102
RTVSPropertyOp24
 70
     1
102
RTVSPropertyOp25
 70
     1
102
RTVSPropertyOp26
 70
     1
102
RTVSPropertyOp27
 70
     1
102
RTVSPropertyOp28
 70
     1
102
RTVSPropertyOp29
 70
     1
102
RTVSPropertyOp30
 70
     1
102
RTVSPropertyOp31
 70
     1
102
RTVSPropertyOp32
 70
     1
102
RTVSPropertyOp33
 70
     1
102
RTVSPropertyOp34
 70
     1
102
RTVSPropertyOp35
 70
     1
102
RTVSPropertyOp36
 70
     1
102
RTVSPropertyOp37
 70
     1
102
RTVSPropertyOp38
 70
     1
102
RTVSPropertyOp39
 70
     1
102
RTVSPropertyOp40
 70
     1
102
RTVSPropertyOp41
 70
     1
102
RTVSPropertyOp42
 70
     1
102
RTVSPropertyOp43
 70
     1
102
RTVSPropertyOp44
 70
     1
102
RTVSPropertyOp45
 70
     1
102
RTVSPropertyOp46
 70
     1
102
RTVSPropertyOp47
 70
     1
102
RTVSPropertyOp48
 70
     1
102
RTVSPropertyOp49
 70
     1
102
RTVSPropertyOp50
 70
     1
102
RTVSPropertyOp51
 70
     0
102
RTVSPropertyOp52
 70
     0
102
RTVSPropertyOp53
 70
     1
102
RTVSPropertyOp54
 70
     1
102
RTVSPropertyOp55
 70
     1
102
RTVSPropertyOp56
 70
     1
102
RTVSPropertyOp57
 70
     1
102
RTVSPost2010Prop28
280
     0
102
RTVSPost2010PropOp28
 70
     1
102
RTVSPost2010Prop29
280
     1
102
RTVSPost2010PropOp29
 70
     1
102
RTVSPost2010Prop30
280
     1
102
RTVSPost2010PropOp30
 70
     1
102
RTVSPost2010Prop31
280
     0
102
RTVSPost2010PropOp31
 70
     1
102
RTVSPost2010Prop32
280
     0
102
RTVSPost2010PropOp32
 70
     1
102
RTVSPost2010Prop33
280
     0
102
RTVSPost2010PropOp33
 70
     1
102
RTVSPost2010Prop34
280
     0
102
RTVSPost2010PropOp34
 70
     1
102
RTVSPost2010Prop35
280
     0
102
RTVSPost2010PropOp35
 70
     1
102
RTVSPost2010Prop36
280
     0
102
RTVSPost2010PropOp36
 70
     1
102
RTVSPost2010Prop37
 90
       50
102
RTVSPost2010PropOp37
 70
     1
102
RTVSPost2010Prop38
140
0.0
102
RTVSPost2010PropOp38
 70
     1
102
RTVSPost2010Prop39
140
1.0
102
RTVSPost2010PropOp39
 70
     1
102
RTVSPost2010Prop40
 90
        0
102
RTVSPost2010PropOp40
 70
     1
102
RTVSPost2010Prop41ColorIndex
 90
       18
102
RTVSPost2010Prop41ColorRGB
 90
        0
102
RTVSPost2010PropOp41
 70
     1
102
RTVSPost2010Prop42
 90
       50
102
RTVSPost2010PropOp42
 70
     1
102
RTVSPost2010Prop43
 90
        3
102
RTVSPost2010PropOp43
 70
     1
102
RTVSPost2010Prop44ColorIndex
 90
        5
102
RTVSPost2010Prop44ColorRGB
 90
      255
102
RTVSPost2010PropOp44
 70
     1
102
RTVSPost2010Prop45
280
     0
102
RTVSPost2010PropOp45
 70
     1
102
RTVSPost2010Prop46
 90
       50
102
RTVSPost2010PropOp46
 70
     1
102
RTVSPost2010Prop47
 90
       50
102
RTVSPost2010PropOp47
 70
     1
102
RTVSPost2010Prop48
 90
       50
102
RTVSPost2010PropOp48
 70
     1
102
RTVSPost2010Prop49
280
     0
102
RTVSPost2010PropOp49
 70
     1
102
RTVSPost2010Prop50
 90
       50
102
RTVSPost2010PropOp50
 70
     1
102
RTVSPost2010Prop51ColorIndex
 90
      256
102
RTVSPost2010Prop51ColorRGB
 90
-16777216
102
RTVSPost2010PropOp51
 70
     0
102
RTVSPost2010Prop52
140
1.0
102
RTVSPost2010PropOp52
 70
     0
102
RTVSPost2010Prop53
 90
        2
102
RTVSPost2010PropOp53
 70
     1
102
RTVSPost2010Prop54
  1
strokes_ogs.tif
102
RTVSPost2010PropOp54
 70
     1
102
RTVSPost2010Prop55
280
     0
102
RTVSPost2010PropOp55
 70
     1
102
RTVSPost2010Prop56
140
1.0
102
RTVSPost2010PropOp56
 70
     1
102
RTVSPost2010Prop57
140
1.0
102
RTVSPost2010PropOp57
 70
     1
  0
XRECORD
  5
2D9
102
{ACAD_REACTORS
330
2D8
102
}
330
2D8
100
AcDbXrecord
280
     1
102
RTVSPropertyOp0
 70
     0
102
RTVSPropertyOp1
 70
     0
102
RTVSPropertyOp2
 70
     0
102
RTVSPropertyOp3
 70
     0
102
RTVSPropertyOp4
 70
     0
102
RTVSPropertyOp5
 70
     0
102
RTVSPropertyOp6
 70
     0
102
RTVSPropertyOp7
 70
     0
102
RTVSPropertyOp8
 70
     0
102
RTVSPropertyOp9
 70
     0
102
RTVSPropertyOp10
 70
     0
102
RTVSPropertyOp11
 70
     0
102
RTVSPropertyOp12
 70
     0
102
RTVSPropertyOp13
 70
     0
102
RTVSPropertyOp14
 70
     2
102
RTVSPropertyOp15
 70
     0
102
RTVSPropertyOp16
 70
     0
102
RTVSPropertyOp17
 70
     0
102
RTVSPropertyOp18
 70
     0
102
RTVSPropertyOp19
 70
     0
102
RTVSPropertyOp20
 70
     0
102
RTVSPropertyOp21
 70
     0
102
RTVSPropertyOp22
 70
     0
102
RTVSPropertyOp23
 70
     0
102
RTVSPropertyOp24
 70
     0
102
RTVSPropertyOp25
 70
     0
102
RTVSPropertyOp26
 70
     0
102
RTVSPropertyOp27
 70
     0
102
RTVSPropertyOp28
 70
     0
102
RTVSPropertyOp29
 70
     0
102
RTVSPropertyOp30
 70
     0
102
RTVSPropertyOp31
 70
     0
102
RTVSPropertyOp32
 70
     0
102
RTVSPropertyOp33
 70
     0
102
RTVSPropertyOp34
 70
     0
102
RTVSPropertyOp35
 70
     0
102
RTVSPropertyOp36
 70
     0
102
RTVSPropertyOp37
 70
     0
102
RTVSPropertyOp38
 70
     0
102
RTVSPropertyOp39
 70
     0
102
RTVSPropertyOp40
 70
     0
102
RTVSPropertyOp41
 70
     0
102
RTVSPropertyOp42
 70
     0
102
RTVSPropertyOp43
 70
     0
102
RTVSPropertyOp44
 70
     0
102
RTVSPropertyOp45
 70
     0
102
RTVSPropertyOp46
 70
     0
102
RTVSPropertyOp47
 70
     0
102
RTVSPropertyOp48
 70
     0
102
RTVSPropertyOp49
 70
     0
102
RTVSPropertyOp50
 70
     0
102
RTVSPropertyOp51
 70
     0
102
RTVSPropertyOp52
 70
     0
102
RTVSPropertyOp53
 70
     0
102
RTVSPropertyOp54
 70
     0
102
RTVSPropertyOp55
 70
     0
102
RTVSPropertyOp56
 70
     0
102
RTVSPropertyOp57
 70
     0
102
RTVSPost2010Prop28
280
     0
102
RTVSPost2010PropOp28
 70
     0
102
RTVSPost2010Prop29
280
     1
102
RTVSPost2010PropOp29
 70
     0
102
RTVSPost2010Prop30
280
     1
102
RTVSPost2010PropOp30
 70
     0
102
RTVSPost2010Prop31
280
     0
102
RTVSPost2010PropOp31
 70
     0
102
RTVSPost2010Prop32
280
     0
102
RTVSPost2010PropOp32
 70
     0
102
RTVSPost2010Prop33
280
     0
102
RTVSPost2010PropOp33
 70
     0
102
RTVSPost2010Prop34
280
     0
102
RTVSPost2010PropOp34
 70
     0
102
RTVSPost2010Prop35
280
     0
102
RTVSPost2010PropOp35
 70
     0
102
RTVSPost2010Prop36
280
     0
102
RTVSPost2010PropOp36
 70
     0
102
RTVSPost2010Prop37
 90
       50
102
RTVSPost2010PropOp37
 70
     0
102
RTVSPost2010Prop38
140
0.0
102
RTVSPost2010PropOp38
 70
     0
102
RTVSPost2010Prop39
140
1.0
102
RTVSPost2010PropOp39
 70
     0
102
RTVSPost2010Prop40
 90
        0
102
RTVSPost2010PropOp40
 70
     0
102
RTVSPost2010Prop41ColorIndex
 90
       18
102
RTVSPost2010Prop41ColorRGB
 90
        0
102
RTVSPost2010PropOp41
 70
     0
102
RTVSPost2010Prop42
 90
       50
102
RTVSPost2010PropOp42
 70
     0
102
RTVSPost2010Prop43
 90
        3
102
RTVSPost2010PropOp43
 70
     0
102
RTVSPost2010Prop44ColorIndex
 90
        5
102
RTVSPost2010Prop44ColorRGB
 90
      255
102
RTVSPost2010PropOp44
 70
     0
102
RTVSPost2010Prop45
280
     0
102
RTVSPost2010PropOp45
 70
     0
102
RTVSPost2010Prop46
 90
       50
102
RTVSPost2010PropOp46
 70
     0
102
RTVSPost2010Prop47
 90
       50
102
RTVSPost2010PropOp47
 70
     0
102
RTVSPost2010Prop48
 90
       50
102
RTVSPost2010PropOp48
 70
     0
102
RTVSPost2010Prop49
280
     0
102
RTVSPost2010PropOp49
 70
     0
102
RTVSPost2010Prop50
 90
       50
102
RTVSPost2010PropOp50
 70
     0
102
RTVSPost2010Prop51ColorIndex
 90
      256
102
RTVSPost2010Prop51ColorRGB
 90
-16777216
102
RTVSPost2010PropOp51
 70
     0
102
RTVSPost2010Prop52
140
1.0
102
RTVSPost2010PropOp52
 70
     0
102
RTVSPost2010Prop53
 90
        2
102
RTVSPost2010PropOp53
 70
     0
102
RTVSPost2010Prop54
  1
strokes_ogs.tif
102
RTVSPost2010PropOp54
 70
     0
102
RTVSPost2010Prop55
280
     0
102
RTVSPost2010PropOp55
 70
     0
102
RTVSPost2010Prop56
140
1.0
102
RTVSPost2010PropOp56
 70
     0
102
RTVSPost2010Prop57
140
1.0
102
RTVSPost2010PropOp57
 70
     0
  0
XRECORD
  5
2D3
102
{ACAD_REACTORS
330
2D2
102
}
330
2D2
100
AcDbXrecord
280
     1
102
RTVSPropertyOp0
 70
     1
102
RTVSPropertyOp1
 70
     1
102
RTVSPropertyOp2
 70
     1
102
RTVSPropertyOp3
 70
     1
102
RTVSPropertyOp4
 70
     1
102
RTVSPropertyOp5
 70
     1
102
RTVSPropertyOp6
 70
     1
102
RTVSPropertyOp7
 70
     1
102
RTVSPropertyOp8
 70
     1
102
RTVSPropertyOp9
 70
     1
102
RTVSPropertyOp10
 70
     1
102
RTVSPropertyOp11
 70
     1
102
RTVSPropertyOp12
 70
     1
102
RTVSPropertyOp13
 70
     1
102
RTVSPropertyOp14
 70
     1
102
RTVSPropertyOp15
 70
     1
102
RTVSPropertyOp16
 70
     1
102
RTVSPropertyOp17
 70
     1
102
RTVSPropertyOp18
 70
     1
102
RTVSPropertyOp19
 70
     1
102
RTVSPropertyOp20
 70
     1
102
RTVSPropertyOp21
 70
     1
102
RTVSPropertyOp22
 70
     1
102
RTVSPropertyOp23
 70
     1
102
RTVSPropertyOp24
 70
     1
102
RTVSPropertyOp25
 70
     1
102
RTVSPropertyOp26
 70
     1
102
RTVSPropertyOp27
 70
     1
102
RTVSPropertyOp28
 70
     1
102
RTVSPropertyOp29
 70
     1
102
RTVSPropertyOp30
 70
     1
102
RTVSPropertyOp31
 70
     1
102
RTVSPropertyOp32
 70
     1
102
RTVSPropertyOp33
 70
     1
102
RTVSPropertyOp34
 70
     1
102
RTVSPropertyOp35
 70
     1
102
RTVSPropertyOp36
 70
     1
102
RTVSPropertyOp37
 70
     1
102
RTVSPropertyOp38
 70
     1
102
RTVSPropertyOp39
 70
     1
102
RTVSPropertyOp40
 70
     1
102
RTVSPropertyOp41
 70
     1
102
RTVSPropertyOp42
 70
     1
102
RTVSPropertyOp43
 70
     1
102
RTVSPropertyOp44
 70
     1
102
RTVSPropertyOp45
 70
     1
102
RTVSPropertyOp46
 70
     1
102
RTVSPropertyOp47
 70
     1
102
RTVSPropertyOp48
 70
     1
102
RTVSPropertyOp49
 70
     1
102
RTVSPropertyOp50
 70
     1
102
RTVSPropertyOp51
 70
     0
102
RTVSPropertyOp52
 70
     0
102
RTVSPropertyOp53
 70
     1
102
RTVSPropertyOp54
 70
     1
102
RTVSPropertyOp55
 70
     1
102
RTVSPropertyOp56
 70
     1
102
RTVSPropertyOp57
 70
     1
102
RTVSPost2010Prop28
280
     0
102
RTVSPost2010PropOp28
 70
     1
102
RTVSPost2010Prop29
280
     1
102
RTVSPost2010PropOp29
 70
     1
102
RTVSPost2010Prop30
280
     1
102
RTVSPost2010PropOp30
 70
     1
102
RTVSPost2010Prop31
280
     0
102
RTVSPost2010PropOp31
 70
     1
102
RTVSPost2010Prop32
280
     0
102
RTVSPost2010PropOp32
 70
     1
102
RTVSPost2010Prop33
280
     0
102
RTVSPost2010PropOp33
 70
     1
102
RTVSPost2010Prop34
280
     0
102
RTVSPost2010PropOp34
 70
     1
102
RTVSPost2010Prop35
280
     0
102
RTVSPost2010PropOp35
 70
     1
102
RTVSPost2010Prop36
280
     0
102
RTVSPost2010PropOp36
 70
     1
102
RTVSPost2010Prop37
 90
       50
102
RTVSPost2010PropOp37
 70
     1
102
RTVSPost2010Prop38
140
0.0
102
RTVSPost2010PropOp38
 70
     1
102
RTVSPost2010Prop39
140
1.0
102
RTVSPost2010PropOp39
 70
     1
102
RTVSPost2010Prop40
 90
        0
102
RTVSPost2010PropOp40
 70
     1
102
RTVSPost2010Prop41ColorIndex
 90
       18
102
RTVSPost2010Prop41ColorRGB
 90
        0
102
RTVSPost2010PropOp41
 70
     1
102
RTVSPost2010Prop42
 90
       50
102
RTVSPost2010PropOp42
 70
     1
102
RTVSPost2010Prop43
 90
        3
102
RTVSPost2010PropOp43
 70
     1
102
RTVSPost2010Prop44ColorIndex
 90
        5
102
RTVSPost2010Prop44ColorRGB
 90
      255
102
RTVSPost2010PropOp44
 70
     1
102
RTVSPost2010Prop45
280
     0
102
RTVSPost2010PropOp45
 70
     1
102
RTVSPost2010Prop46
 90
       50
102
RTVSPost2010PropOp46
 70
     1
102
RTVSPost2010Prop47
 90
       50
102
RTVSPost2010PropOp47
 70
     1
102
RTVSPost2010Prop48
 90
       50
102
RTVSPost2010PropOp48
 70
     1
102
RTVSPost2010Prop49
280
     0
102
RTVSPost2010PropOp49
 70
     1
102
RTVSPost2010Prop50
 90
       50
102
RTVSPost2010PropOp50
 70
     1
102
RTVSPost2010Prop51ColorIndex
 90
      256
102
RTVSPost2010Prop51ColorRGB
 90
-16777216
102
RTVSPost2010PropOp51
 70
     0
102
RTVSPost2010Prop52
140
1.0
102
RTVSPost2010PropOp52
 70
     0
102
RTVSPost2010Prop53
 90
        2
102
RTVSPost2010PropOp53
 70
     1
102
RTVSPost2010Prop54
  1
strokes_ogs.tif
102
RTVSPost2010PropOp54
 70
     1
102
RTVSPost2010Prop55
280
     0
102
RTVSPost2010PropOp55
 70
     1
102
RTVSPost2010Prop56
140
1.0
102
RTVSPost2010PropOp56
 70
     1
102
RTVSPost2010Prop57
140
1.0
102
RTVSPost2010PropOp57
 70
     1
  0
XRECORD
  5
2DB
102
{ACAD_REACTORS
330
2DA
102
}
330
2DA
100
AcDbXrecord
280
     1
102
RTVSPropertyOp0
 70
     0
102
RTVSPropertyOp1
 70
     0
102
RTVSPropertyOp2
 70
     0
102
RTVSPropertyOp3
 70
     0
102
RTVSPropertyOp4
 70
     0
102
RTVSPropertyOp5
 70
     0
102
RTVSPropertyOp6
 70
     0
102
RTVSPropertyOp7
 70
     0
102
RTVSPropertyOp8
 70
     0
102
RTVSPropertyOp9
 70
     0
102
RTVSPropertyOp10
 70
     0
102
RTVSPropertyOp11
 70
     0
102
RTVSPropertyOp12
 70
     0
102
RTVSPropertyOp13
 70
     0
102
RTVSPropertyOp14
 70
     2
102
RTVSPropertyOp15
 70
     0
102
RTVSPropertyOp16
 70
     0
102
RTVSPropertyOp17
 70
     0
102
RTVSPropertyOp18
 70
     0
102
RTVSPropertyOp19
 70
     0
102
RTVSPropertyOp20
 70
     0
102
RTVSPropertyOp21
 70
     0
102
RTVSPropertyOp22
 70
     0
102
RTVSPropertyOp23
 70
     0
102
RTVSPropertyOp24
 70
     0
102
RTVSPropertyOp25
 70
     0
102
RTVSPropertyOp26
 70
     0
102
RTVSPropertyOp27
 70
     0
102
RTVSPropertyOp28
 70
     0
102
RTVSPropertyOp29
 70
     0
102
RTVSPropertyOp30
 70
     0
102
RTVSPropertyOp31
 70
     0
102
RTVSPropertyOp32
 70
     0
102
RTVSPropertyOp33
 70
     0
102
RTVSPropertyOp34
 70
     0
102
RTVSPropertyOp35
 70
     0
102
RTVSPropertyOp36
 70
     0
102
RTVSPropertyOp37
 70
     0
102
RTVSPropertyOp38
 70
     0
102
RTVSPropertyOp39
 70
     0
102
RTVSPropertyOp40
 70
     0
102
RTVSPropertyOp41
 70
     0
102
RTVSPropertyOp42
 70
     0
102
RTVSPropertyOp43
 70
     0
102
RTVSPropertyOp44
 70
     0
102
RTVSPropertyOp45
 70
     0
102
RTVSPropertyOp46
 70
     0
102
RTVSPropertyOp47
 70
     0
102
RTVSPropertyOp48
 70
     0
102
RTVSPropertyOp49
 70
     0
102
RTVSPropertyOp50
 70
     0
102
RTVSPropertyOp51
 70
     0
102
RTVSPropertyOp52
 70
     0
102
RTVSPropertyOp53
 70
     0
102
RTVSPropertyOp54
 70
     0
102
RTVSPropertyOp55
 70
     0
102
RTVSPropertyOp56
 70
     0
102
RTVSPropertyOp57
 70
     0
102
RTVSPost2010Prop28
280
     0
102
RTVSPost2010PropOp28
 70
     0
102
RTVSPost2010Prop29
280
     1
102
RTVSPost2010PropOp29
 70
     0
102
RTVSPost2010Prop30
280
     1
102
RTVSPost2010PropOp30
 70
     0
102
RTVSPost2010Prop31
280
     0
102
RTVSPost2010PropOp31
 70
     0
102
RTVSPost2010Prop32
280
     0
102
RTVSPost2010PropOp32
 70
     0
102
RTVSPost2010Prop33
280
     0
102
RTVSPost2010PropOp33
 70
     0
102
RTVSPost2010Prop34
280
     0
102
RTVSPost2010PropOp34
 70
     0
102
RTVSPost2010Prop35
280
     0
102
RTVSPost2010PropOp35
 70
     0
102
RTVSPost2010Prop36
280
     0
102
RTVSPost2010PropOp36
 70
     0
102
RTVSPost2010Prop37
 90
       50
102
RTVSPost2010PropOp37
 70
     0
102
RTVSPost2010Prop38
140
0.0
102
RTVSPost2010PropOp38
 70
     0
102
RTVSPost2010Prop39
140
1.0
102
RTVSPost2010PropOp39
 70
     0
102
RTVSPost2010Prop40
 90
        0
102
RTVSPost2010PropOp40
 70
     0
102
RTVSPost2010Prop41ColorIndex
 90
       18
102
RTVSPost2010Prop41ColorRGB
 90
        0
102
RTVSPost2010PropOp41
 70
     0
102
RTVSPost2010Prop42
 90
       50
102
RTVSPost2010PropOp42
 70
     0
102
RTVSPost2010Prop43
 90
        3
102
RTVSPost2010PropOp43
 70
     0
102
RTVSPost2010Prop44ColorIndex
 90
        5
102
RTVSPost2010Prop44ColorRGB
 90
      255
102
RTVSPost2010PropOp44
 70
     0
102
RTVSPost2010Prop45
280
     0
102
RTVSPost2010PropOp45
 70
     0
102
RTVSPost2010Prop46
 90
       50
102
RTVSPost2010PropOp46
 70
     0
102
RTVSPost2010Prop47
 90
       50
102
RTVSPost2010PropOp47
 70
     0
102
RTVSPost2010Prop48
 90
       50
102
RTVSPost2010PropOp48
 70
     0
102
RTVSPost2010Prop49
280
     0
102
RTVSPost2010PropOp49
 70
     0
102
RTVSPost2010Prop50
 90
       50
102
RTVSPost2010PropOp50
 70
     0
102
RTVSPost2010Prop51ColorIndex
 90
      256
102
RTVSPost2010Prop51ColorRGB
 90
-16777216
102
RTVSPost2010PropOp51
 70
     0
102
RTVSPost2010Prop52
140
1.0
102
RTVSPost2010PropOp52
 70
     0
102
RTVSPost2010Prop53
 90
        2
102
RTVSPost2010PropOp53
 70
     0
102
RTVSPost2010Prop54
  1
strokes_ogs.tif
102
RTVSPost2010PropOp54
 70
     0
102
RTVSPost2010Prop55
280
     0
102
RTVSPost2010PropOp55
 70
     0
102
RTVSPost2010Prop56
140
1.0
102
RTVSPost2010PropOp56
 70
     0
102
RTVSPost2010Prop57
140
1.0
102
RTVSPost2010PropOp57
 70
     0
  0
XRECORD
  5
2C9
102
{ACAD_REACTORS
330
2C8
102
}
330
2C8
100
AcDbXrecord
280
     1
102
RTVSPropertyOp0
 70
     1
102
RTVSPropertyOp1
 70
     1
102
RTVSPropertyOp2
 70
     1
102
RTVSPropertyOp3
 70
     1
102
RTVSPropertyOp4
 70
     1
102
RTVSPropertyOp5
 70
     1
102
RTVSPropertyOp6
 70
     1
102
RTVSPropertyOp7
 70
     1
102
RTVSPropertyOp8
 70
     1
102
RTVSPropertyOp9
 70
     1
102
RTVSPropertyOp10
 70
     1
102
RTVSPropertyOp11
 70
     1
102
RTVSPropertyOp12
 70
     1
102
RTVSPropertyOp13
 70
     1
102
RTVSPropertyOp14
 70
     1
102
RTVSPropertyOp15
 70
     1
102
RTVSPropertyOp16
 70
     1
102
RTVSPropertyOp17
 70
     1
102
RTVSPropertyOp18
 70
     1
102
RTVSPropertyOp19
 70
     1
102
RTVSPropertyOp20
 70
     1
102
RTVSPropertyOp21
 70
     1
102
RTVSPropertyOp22
 70
     1
102
RTVSPropertyOp23
 70
     1
102
RTVSPropertyOp24
 70
     1
102
RTVSPropertyOp25
 70
     1
102
RTVSPropertyOp26
 70
     1
102
RTVSPropertyOp27
 70
     1
102
RTVSPropertyOp28
 70
     1
102
RTVSPropertyOp29
 70
     1
102
RTVSPropertyOp30
 70
     1
102
RTVSPropertyOp31
 70
     1
102
RTVSPropertyOp32
 70
     1
102
RTVSPropertyOp33
 70
     1
102
RTVSPropertyOp34
 70
     1
102
RTVSPropertyOp35
 70
     1
102
RTVSPropertyOp36
 70
     1
102
RTVSPropertyOp37
 70
     1
102
RTVSPropertyOp38
 70
     1
102
RTVSPropertyOp39
 70
     1
102
RTVSPropertyOp40
 70
     1
102
RTVSPropertyOp41
 70
     1
102
RTVSPropertyOp42
 70
     1
102
RTVSPropertyOp43
 70
     1
102
RTVSPropertyOp44
 70
     1
102
RTVSPropertyOp45
 70
     1
102
RTVSPropertyOp46
 70
     1
102
RTVSPropertyOp47
 70
     1
102
RTVSPropertyOp48
 70
     1
102
RTVSPropertyOp49
 70
     1
102
RTVSPropertyOp50
 70
     1
102
RTVSPropertyOp51
 70
     0
102
RTVSPropertyOp52
 70
     0
102
RTVSPropertyOp53
 70
     1
102
RTVSPropertyOp54
 70
     1
102
RTVSPropertyOp55
 70
     1
102
RTVSPropertyOp56
 70
     1
102
RTVSPropertyOp57
 70
     1
102
RTVSPost2010Prop28
280
     0
102
RTVSPost2010PropOp28
 70
     1
102
RTVSPost2010Prop29
280
     1
102
RTVSPost2010PropOp29
 70
     1
102
RTVSPost2010Prop30
280
     1
102
RTVSPost2010PropOp30
 70
     1
102
RTVSPost2010Prop31
280
     0
102
RTVSPost2010PropOp31
 70
     1
102
RTVSPost2010Prop32
280
     0
102
RTVSPost2010PropOp32
 70
     1
102
RTVSPost2010Prop33
280
     0
102
RTVSPost2010PropOp33
 70
     1
102
RTVSPost2010Prop34
280
     0
102
RTVSPost2010PropOp34
 70
     1
102
RTVSPost2010Prop35
280
     0
102
RTVSPost2010PropOp35
 70
     1
102
RTVSPost2010Prop36
280
     0
102
RTVSPost2010PropOp36
 70
     1
102
RTVSPost2010Prop37
 90
       50
102
RTVSPost2010PropOp37
 70
     1
102
RTVSPost2010Prop38
140
0.0
102
RTVSPost2010PropOp38
 70
     1
102
RTVSPost2010Prop39
140
1.0
102
RTVSPost2010PropOp39
 70
     1
102
RTVSPost2010Prop40
 90
        0
102
RTVSPost2010PropOp40
 70
     1
102
RTVSPost2010Prop41ColorIndex
 90
       18
102
RTVSPost2010Prop41ColorRGB
 90
        0
102
RTVSPost2010PropOp41
 70
     1
102
RTVSPost2010Prop42
 90
       50
102
RTVSPost2010PropOp42
 70
     1
102
RTVSPost2010Prop43
 90
        3
102
RTVSPost2010PropOp43
 70
     1
102
RTVSPost2010Prop44ColorIndex
 90
        5
102
RTVSPost2010Prop44ColorRGB
 90
      255
102
RTVSPost2010PropOp44
 70
     1
102
RTVSPost2010Prop45
280
     0
102
RTVSPost2010PropOp45
 70
     1
102
RTVSPost2010Prop46
 90
       50
102
RTVSPost2010PropOp46
 70
     1
102
RTVSPost2010Prop47
 90
       50
102
RTVSPost2010PropOp47
 70
     1
102
RTVSPost2010Prop48
 90
       50
102
RTVSPost2010PropOp48
 70
     1
102
RTVSPost2010Prop49
280
     0
102
RTVSPost2010PropOp49
 70
     1
102
RTVSPost2010Prop50
 90
       50
102
RTVSPost2010PropOp50
 70
     1
102
RTVSPost2010Prop51ColorIndex
 90
      256
102
RTVSPost2010Prop51ColorRGB
 90
-16777216
102
RTVSPost2010PropOp51
 70
     0
102
RTVSPost2010Prop52
140
1.0
102
RTVSPost2010PropOp52
 70
     0
102
RTVSPost2010Prop53
 90
        2
102
RTVSPost2010PropOp53
 70
     1
102
RTVSPost2010Prop54
  1
strokes_ogs.tif
102
RTVSPost2010PropOp54
 70
     1
102
RTVSPost2010Prop55
280
     0
102
RTVSPost2010PropOp55
 70
     1
102
RTVSPost2010Prop56
140
1.0
102
RTVSPost2010PropOp56
 70
     1
102
RTVSPost2010Prop57
140
1.0
102
RTVSPost2010PropOp57
 70
     1
  0
XRECORD
  5
2E7
102
{ACAD_REACTORS
330
2E6
102
}
330
2E6
100
AcDbXrecord
280
     1
102
RTVSPropertyOp0
 70
     1
102
RTVSPropertyOp1
 70
     1
102
RTVSPropertyOp2
 70
     1
102
RTVSPropertyOp3
 70
     1
102
RTVSPropertyOp4
 70
     1
102
RTVSPropertyOp5
 70
     1
102
RTVSPropertyOp6
 70
     1
102
RTVSPropertyOp7
 70
     1
102
RTVSPropertyOp8
 70
     1
102
RTVSPropertyOp9
 70
     1
102
RTVSPropertyOp10
 70
     1
102
RTVSPropertyOp11
 70
     1
102
RTVSPropertyOp12
 70
     1
102
RTVSPropertyOp13
 70
     1
102
RTVSPropertyOp14
 70
     1
102
RTVSPropertyOp15
 70
     1
102
RTVSPropertyOp16
 70
     1
102
RTVSPropertyOp17
 70
     1
102
RTVSPropertyOp18
 70
     1
102
RTVSPropertyOp19
 70
     1
102
RTVSPropertyOp20
 70
     1
102
RTVSPropertyOp21
 70
     1
102
RTVSPropertyOp22
 70
     1
102
RTVSPropertyOp23
 70
     1
102
RTVSPropertyOp24
 70
     1
102
RTVSPropertyOp25
 70
     1
102
RTVSPropertyOp26
 70
     1
102
RTVSPropertyOp27
 70
     1
102
RTVSPropertyOp28
 70
     1
102
RTVSPropertyOp29
 70
     1
102
RTVSPropertyOp30
 70
     1
102
RTVSPropertyOp31
 70
     1
102
RTVSPropertyOp32
 70
     1
102
RTVSPropertyOp33
 70
     1
102
RTVSPropertyOp34
 70
     1
102
RTVSPropertyOp35
 70
     1
102
RTVSPropertyOp36
 70
     1
102
RTVSPropertyOp37
 70
     1
102
RTVSPropertyOp38
 70
     1
102
RTVSPropertyOp39
 70
     1
102
RTVSPropertyOp40
 70
     1
102
RTVSPropertyOp41
 70
     1
102
RTVSPropertyOp42
 70
     1
102
RTVSPropertyOp43
 70
     1
102
RTVSPropertyOp44
 70
     1
102
RTVSPropertyOp45
 70
     1
102
RTVSPropertyOp46
 70
     1
102
RTVSPropertyOp47
 70
     1
102
RTVSPropertyOp48
 70
     1
102
RTVSPropertyOp49
 70
     1
102
RTVSPropertyOp50
 70
     1
102
RTVSPropertyOp51
 70
     0
102
RTVSPropertyOp52
 70
     0
102
RTVSPropertyOp53
 70
     1
102
RTVSPropertyOp54
 70
     1
102
RTVSPropertyOp55
 70
     1
102
RTVSPropertyOp56
 70
     1
102
RTVSPropertyOp57
 70
     1
102
RTVSPost2010Prop28
280
     0
102
RTVSPost2010PropOp28
 70
     1
102
RTVSPost2010Prop29
280
     1
102
RTVSPost2010PropOp29
 70
     1
102
RTVSPost2010Prop30
280
     1
102
RTVSPost2010PropOp30
 70
     1
102
RTVSPost2010Prop31
280
     0
102
RTVSPost2010PropOp31
 70
     1
102
RTVSPost2010Prop32
280
     0
102
RTVSPost2010PropOp32
 70
     1
102
RTVSPost2010Prop33
280
     0
102
RTVSPost2010PropOp33
 70
     1
102
RTVSPost2010Prop34
280
     0
102
RTVSPost2010PropOp34
 70
     1
102
RTVSPost2010Prop35
280
     0
102
RTVSPost2010PropOp35
 70
     1
102
RTVSPost2010Prop36
280
     0
102
RTVSPost2010PropOp36
 70
     1
102
RTVSPost2010Prop37
 90
       50
102
RTVSPost2010PropOp37
 70
     1
102
RTVSPost2010Prop38
140
0.0
102
RTVSPost2010PropOp38
 70
     1
102
RTVSPost2010Prop39
140
1.0
102
RTVSPost2010PropOp39
 70
     1
102
RTVSPost2010Prop40
 90
        0
102
RTVSPost2010PropOp40
 70
     1
102
RTVSPost2010Prop41ColorIndex
 90
       18
102
RTVSPost2010Prop41ColorRGB
 90
        0
102
RTVSPost2010PropOp41
 70
     1
102
RTVSPost2010Prop42
 90
       50
102
RTVSPost2010PropOp42
 70
     1
102
RTVSPost2010Prop43
 90
        3
102
RTVSPost2010PropOp43
 70
     1
102
RTVSPost2010Prop44ColorIndex
 90
        5
102
RTVSPost2010Prop44ColorRGB
 90
      255
102
RTVSPost2010PropOp44
 70
     1
102
RTVSPost2010Prop45
280
     0
102
RTVSPost2010PropOp45
 70
     1
102
RTVSPost2010Prop46
 90
       50
102
RTVSPost2010PropOp46
 70
     1
102
RTVSPost2010Prop47
 90
       50
102
RTVSPost2010PropOp47
 70
     1
102
RTVSPost2010Prop48
 90
       50
102
RTVSPost2010PropOp48
 70
     1
102
RTVSPost2010Prop49
280
     0
102
RTVSPost2010PropOp49
 70
     1
102
RTVSPost2010Prop50
 90
       50
102
RTVSPost2010PropOp50
 70
     1
102
RTVSPost2010Prop51ColorIndex
 90
      256
102
RTVSPost2010Prop51ColorRGB
 90
-16777216
102
RTVSPost2010PropOp51
 70
     0
102
RTVSPost2010Prop52
140
1.0
102
RTVSPost2010PropOp52
 70
     0
102
RTVSPost2010Prop53
 90
        2
102
RTVSPost2010PropOp53
 70
     1
102
RTVSPost2010Prop54
  1
strokes_ogs.tif
102
RTVSPost2010PropOp54
 70
     1
102
RTVSPost2010Prop55
280
     0
102
RTVSPost2010PropOp55
 70
     1
102
RTVSPost2010Prop56
140
1.0
102
RTVSPost2010PropOp56
 70
     1
102
RTVSPost2010Prop57
140
1.0
102
RTVSPost2010PropOp57
 70
     1
  0
XRECORD
  5
2E5
102
{ACAD_REACTORS
330
2E4
102
}
330
2E4
100
AcDbXrecord
280
     1
102
RTVSPropertyOp0
 70
     1
102
RTVSPropertyOp1
 70
     1
102
RTVSPropertyOp2
 70
     1
102
RTVSPropertyOp3
 70
     1
102
RTVSPropertyOp4
 70
     1
102
RTVSPropertyOp5
 70
     1
102
RTVSPropertyOp6
 70
     1
102
RTVSPropertyOp7
 70
     1
102
RTVSPropertyOp8
 70
     1
102
RTVSPropertyOp9
 70
     1
102
RTVSPropertyOp10
 70
     1
102
RTVSPropertyOp11
 70
     1
102
RTVSPropertyOp12
 70
     1
102
RTVSPropertyOp13
 70
     1
102
RTVSPropertyOp14
 70
     1
102
RTVSPropertyOp15
 70
     1
102
RTVSPropertyOp16
 70
     1
102
RTVSPropertyOp17
 70
     1
102
RTVSPropertyOp18
 70
     1
102
RTVSPropertyOp19
 70
     1
102
RTVSPropertyOp20
 70
     1
102
RTVSPropertyOp21
 70
     1
102
RTVSPropertyOp22
 70
     1
102
RTVSPropertyOp23
 70
     1
102
RTVSPropertyOp24
 70
     1
102
RTVSPropertyOp25
 70
     1
102
RTVSPropertyOp26
 70
     1
102
RTVSPropertyOp27
 70
     1
102
RTVSPropertyOp28
 70
     1
102
RTVSPropertyOp29
 70
     1
102
RTVSPropertyOp30
 70
     1
102
RTVSPropertyOp31
 70
     1
102
RTVSPropertyOp32
 70
     1
102
RTVSPropertyOp33
 70
     1
102
RTVSPropertyOp34
 70
     1
102
RTVSPropertyOp35
 70
     1
102
RTVSPropertyOp36
 70
     1
102
RTVSPropertyOp37
 70
     1
102
RTVSPropertyOp38
 70
     1
102
RTVSPropertyOp39
 70
     1
102
RTVSPropertyOp40
 70
     1
102
RTVSPropertyOp41
 70
     1
102
RTVSPropertyOp42
 70
     1
102
RTVSPropertyOp43
 70
     1
102
RTVSPropertyOp44
 70
     1
102
RTVSPropertyOp45
 70
     1
102
RTVSPropertyOp46
 70
     1
102
RTVSPropertyOp47
 70
     1
102
RTVSPropertyOp48
 70
     1
102
RTVSPropertyOp49
 70
     1
102
RTVSPropertyOp50
 70
     1
102
RTVSPropertyOp51
 70
     0
102
RTVSPropertyOp52
 70
     0
102
RTVSPropertyOp53
 70
     1
102
RTVSPropertyOp54
 70
     1
102
RTVSPropertyOp55
 70
     1
102
RTVSPropertyOp56
 70
     1
102
RTVSPropertyOp57
 70
     1
102
RTVSPost2010Prop28
280
     0
102
RTVSPost2010PropOp28
 70
     1
102
RTVSPost2010Prop29
280
     1
102
RTVSPost2010PropOp29
 70
     1
102
RTVSPost2010Prop30
280
     1
102
RTVSPost2010PropOp30
 70
     1
102
RTVSPost2010Prop31
280
     0
102
RTVSPost2010PropOp31
 70
     1
102
RTVSPost2010Prop32
280
     0
102
RTVSPost2010PropOp32
 70
     1
102
RTVSPost2010Prop33
280
     0
102
RTVSPost2010PropOp33
 70
     1
102
RTVSPost2010Prop34
280
     0
102
RTVSPost2010PropOp34
 70
     1
102
RTVSPost2010Prop35
280
     0
102
RTVSPost2010PropOp35
 70
     1
102
RTVSPost2010Prop36
280
     0
102
RTVSPost2010PropOp36
 70
     1
102
RTVSPost2010Prop37
 90
       50
102
RTVSPost2010PropOp37
 70
     1
102
RTVSPost2010Prop38
140
0.0
102
RTVSPost2010PropOp38
 70
     1
102
RTVSPost2010Prop39
140
1.0
102
RTVSPost2010PropOp39
 70
     1
102
RTVSPost2010Prop40
 90
        0
102
RTVSPost2010PropOp40
 70
     1
102
RTVSPost2010Prop41ColorIndex
 90
       18
102
RTVSPost2010Prop41ColorRGB
 90
        0
102
RTVSPost2010PropOp41
 70
     1
102
RTVSPost2010Prop42
 90
       50
102
RTVSPost2010PropOp42
 70
     1
102
RTVSPost2010Prop43
 90
        3
102
RTVSPost2010PropOp43
 70
     1
102
RTVSPost2010Prop44ColorIndex
 90
        5
102
RTVSPost2010Prop44ColorRGB
 90
      255
102
RTVSPost2010PropOp44
 70
     1
102
RTVSPost2010Prop45
280
     0
102
RTVSPost2010PropOp45
 70
     1
102
RTVSPost2010Prop46
 90
       50
102
RTVSPost2010PropOp46
 70
     1
102
RTVSPost2010Prop47
 90
       50
102
RTVSPost2010PropOp47
 70
     1
102
RTVSPost2010Prop48
 90
       50
102
RTVSPost2010PropOp48
 70
     1
102
RTVSPost2010Prop49
280
     0
102
RTVSPost2010PropOp49
 70
     1
102
RTVSPost2010Prop50
 90
       50
102
RTVSPost2010PropOp50
 70
     1
102
RTVSPost2010Prop51ColorIndex
 90
      256
102
RTVSPost2010Prop51ColorRGB
 90
-16777216
102
RTVSPost2010PropOp51
 70
     0
102
RTVSPost2010Prop52
140
1.0
102
RTVSPost2010PropOp52
 70
     0
102
RTVSPost2010Prop53
 90
        2
102
RTVSPost2010PropOp53
 70
     1
102
RTVSPost2010Prop54
  1
strokes_ogs.tif
102
RTVSPost2010PropOp54
 70
     1
102
RTVSPost2010Prop55
280
     0
102
RTVSPost2010PropOp55
 70
     1
102
RTVSPost2010Prop56
140
1.0
102
RTVSPost2010PropOp56
 70
     1
102
RTVSPost2010Prop57
140
1.0
102
RTVSPost2010PropOp57
 70
     1
  0
XRECORD
  5
2DF
102
{ACAD_REACTORS
330
2DE
102
}
330
2DE
100
AcDbXrecord
280
     1
102
RTVSPropertyOp0
 70
     1
102
RTVSPropertyOp1
 70
     1
102
RTVSPropertyOp2
 70
     1
102
RTVSPropertyOp3
 70
     1
102
RTVSPropertyOp4
 70
     1
102
RTVSPropertyOp5
 70
     1
102
RTVSPropertyOp6
 70
     1
102
RTVSPropertyOp7
 70
     1
102
RTVSPropertyOp8
 70
     1
102
RTVSPropertyOp9
 70
     1
102
RTVSPropertyOp10
 70
     1
102
RTVSPropertyOp11
 70
     1
102
RTVSPropertyOp12
 70
     1
102
RTVSPropertyOp13
 70
     1
102
RTVSPropertyOp14
 70
     1
102
RTVSPropertyOp15
 70
     1
102
RTVSPropertyOp16
 70
     1
102
RTVSPropertyOp17
 70
     1
102
RTVSPropertyOp18
 70
     1
102
RTVSPropertyOp19
 70
     1
102
RTVSPropertyOp20
 70
     1
102
RTVSPropertyOp21
 70
     1
102
RTVSPropertyOp22
 70
     1
102
RTVSPropertyOp23
 70
     1
102
RTVSPropertyOp24
 70
     1
102
RTVSPropertyOp25
 70
     1
102
RTVSPropertyOp26
 70
     1
102
RTVSPropertyOp27
 70
     1
102
RTVSPropertyOp28
 70
     1
102
RTVSPropertyOp29
 70
     1
102
RTVSPropertyOp30
 70
     1
102
RTVSPropertyOp31
 70
     1
102
RTVSPropertyOp32
 70
     1
102
RTVSPropertyOp33
 70
     1
102
RTVSPropertyOp34
 70
     1
102
RTVSPropertyOp35
 70
     1
102
RTVSPropertyOp36
 70
     1
102
RTVSPropertyOp37
 70
     1
102
RTVSPropertyOp38
 70
     1
102
RTVSPropertyOp39
 70
     1
102
RTVSPropertyOp40
 70
     1
102
RTVSPropertyOp41
 70
     1
102
RTVSPropertyOp42
 70
     1
102
RTVSPropertyOp43
 70
     1
102
RTVSPropertyOp44
 70
     1
102
RTVSPropertyOp45
 70
     1
102
RTVSPropertyOp46
 70
     1
102
RTVSPropertyOp47
 70
     1
102
RTVSPropertyOp48
 70
     1
102
RTVSPropertyOp49
 70
     1
102
RTVSPropertyOp50
 70
     1
102
RTVSPropertyOp51
 70
     0
102
RTVSPropertyOp52
 70
     0
102
RTVSPropertyOp53
 70
     1
102
RTVSPropertyOp54
 70
     1
102
RTVSPropertyOp55
 70
     1
102
RTVSPropertyOp56
 70
     1
102
RTVSPropertyOp57
 70
     1
102
RTVSPost2010Prop28
280
     0
102
RTVSPost2010PropOp28
 70
     1
102
RTVSPost2010Prop29
280
     1
102
RTVSPost2010PropOp29
 70
     1
102
RTVSPost2010Prop30
280
     1
102
RTVSPost2010PropOp30
 70
     1
102
RTVSPost2010Prop31
280
     0
102
RTVSPost2010PropOp31
 70
     1
102
RTVSPost2010Prop32
280
     0
102
RTVSPost2010PropOp32
 70
     1
102
RTVSPost2010Prop33
280
     0
102
RTVSPost2010PropOp33
 70
     1
102
RTVSPost2010Prop34
280
     0
102
RTVSPost2010PropOp34
 70
     1
102
RTVSPost2010Prop35
280
     0
102
RTVSPost2010PropOp35
 70
     1
102
RTVSPost2010Prop36
280
     0
102
RTVSPost2010PropOp36
 70
     1
102
RTVSPost2010Prop37
 90
       50
102
RTVSPost2010PropOp37
 70
     1
102
RTVSPost2010Prop38
140
0.0
102
RTVSPost2010PropOp38
 70
     1
102
RTVSPost2010Prop39
140
1.0
102
RTVSPost2010PropOp39
 70
     1
102
RTVSPost2010Prop40
 90
        0
102
RTVSPost2010PropOp40
 70
     1
102
RTVSPost2010Prop41ColorIndex
 90
       18
102
RTVSPost2010Prop41ColorRGB
 90
        0
102
RTVSPost2010PropOp41
 70
     1
102
RTVSPost2010Prop42
 90
       50
102
RTVSPost2010PropOp42
 70
     1
102
RTVSPost2010Prop43
 90
        3
102
RTVSPost2010PropOp43
 70
     1
102
RTVSPost2010Prop44ColorIndex
 90
        5
102
RTVSPost2010Prop44ColorRGB
 90
      255
102
RTVSPost2010PropOp44
 70
     1
102
RTVSPost2010Prop45
280
     0
102
RTVSPost2010PropOp45
 70
     1
102
RTVSPost2010Prop46
 90
       50
102
RTVSPost2010PropOp46
 70
     1
102
RTVSPost2010Prop47
 90
       50
102
RTVSPost2010PropOp47
 70
     1
102
RTVSPost2010Prop48
 90
       50
102
RTVSPost2010PropOp48
 70
     1
102
RTVSPost2010Prop49
280
     0
102
RTVSPost2010PropOp49
 70
     1
102
RTVSPost2010Prop50
 90
       50
102
RTVSPost2010PropOp50
 70
     1
102
RTVSPost2010Prop51ColorIndex
 90
      256
102
RTVSPost2010Prop51ColorRGB
 90
-16777216
102
RTVSPost2010PropOp51
 70
     0
102
RTVSPost2010Prop52
140
1.0
102
RTVSPost2010PropOp52
 70
     0
102
RTVSPost2010Prop53
 90
        2
102
RTVSPost2010PropOp53
 70
     1
102
RTVSPost2010Prop54
  1
strokes_ogs.tif
102
RTVSPost2010PropOp54
 70
     1
102
RTVSPost2010Prop55
280
     0
102
RTVSPost2010PropOp55
 70
     1
102
RTVSPost2010Prop56
140
1.0
102
RTVSPost2010PropOp56
 70
     1
102
RTVSPost2010Prop57
140
1.0
102
RTVSPost2010PropOp57
 70
     1
  0
XRECORD
  5
2E1
102
{ACAD_REACTORS
330
2E0
102
}
330
2E0
100
AcDbXrecord
280
     1
102
RTVSPropertyOp0
 70
     1
102
RTVSPropertyOp1
 70
     1
102
RTVSPropertyOp2
 70
     1
102
RTVSPropertyOp3
 70
     1
102
RTVSPropertyOp4
 70
     1
102
RTVSPropertyOp5
 70
     1
102
RTVSPropertyOp6
 70
     1
102
RTVSPropertyOp7
 70
     1
102
RTVSPropertyOp8
 70
     1
102
RTVSPropertyOp9
 70
     1
102
RTVSPropertyOp10
 70
     1
102
RTVSPropertyOp11
 70
     1
102
RTVSPropertyOp12
 70
     1
102
RTVSPropertyOp13
 70
     1
102
RTVSPropertyOp14
 70
     1
102
RTVSPropertyOp15
 70
     1
102
RTVSPropertyOp16
 70
     1
102
RTVSPropertyOp17
 70
     1
102
RTVSPropertyOp18
 70
     1
102
RTVSPropertyOp19
 70
     1
102
RTVSPropertyOp20
 70
     1
102
RTVSPropertyOp21
 70
     1
102
RTVSPropertyOp22
 70
     1
102
RTVSPropertyOp23
 70
     1
102
RTVSPropertyOp24
 70
     1
102
RTVSPropertyOp25
 70
     1
102
RTVSPropertyOp26
 70
     1
102
RTVSPropertyOp27
 70
     1
102
RTVSPropertyOp28
 70
     1
102
RTVSPropertyOp29
 70
     1
102
RTVSPropertyOp30
 70
     1
102
RTVSPropertyOp31
 70
     1
102
RTVSPropertyOp32
 70
     1
102
RTVSPropertyOp33
 70
     1
102
RTVSPropertyOp34
 70
     1
102
RTVSPropertyOp35
 70
     1
102
RTVSPropertyOp36
 70
     1
102
RTVSPropertyOp37
 70
     1
102
RTVSPropertyOp38
 70
     1
102
RTVSPropertyOp39
 70
     1
102
RTVSPropertyOp40
 70
     1
102
RTVSPropertyOp41
 70
     1
102
RTVSPropertyOp42
 70
     1
102
RTVSPropertyOp43
 70
     1
102
RTVSPropertyOp44
 70
     1
102
RTVSPropertyOp45
 70
     1
102
RTVSPropertyOp46
 70
     1
102
RTVSPropertyOp47
 70
     1
102
RTVSPropertyOp48
 70
     1
102
RTVSPropertyOp49
 70
     1
102
RTVSPropertyOp50
 70
     1
102
RTVSPropertyOp51
 70
     0
102
RTVSPropertyOp52
 70
     0
102
RTVSPropertyOp53
 70
     1
102
RTVSPropertyOp54
 70
     1
102
RTVSPropertyOp55
 70
     1
102
RTVSPropertyOp56
 70
     1
102
RTVSPropertyOp57
 70
     1
102
RTVSPost2010Prop28
280
     0
102
RTVSPost2010PropOp28
 70
     1
102
RTVSPost2010Prop29
280
     1
102
RTVSPost2010PropOp29
 70
     1
102
RTVSPost2010Prop30
280
     1
102
RTVSPost2010PropOp30
 70
     1
102
RTVSPost2010Prop31
280
     0
102
RTVSPost2010PropOp31
 70
     1
102
RTVSPost2010Prop32
280
     0
102
RTVSPost2010PropOp32
 70
     1
102
RTVSPost2010Prop33
280
     0
102
RTVSPost2010PropOp33
 70
     1
102
RTVSPost2010Prop34
280
     0
102
RTVSPost2010PropOp34
 70
     1
102
RTVSPost2010Prop35
280
     0
102
RTVSPost2010PropOp35
 70
     1
102
RTVSPost2010Prop36
280
     0
102
RTVSPost2010PropOp36
 70
     1
102
RTVSPost2010Prop37
 90
       50
102
RTVSPost2010PropOp37
 70
     1
102
RTVSPost2010Prop38
140
0.0
102
RTVSPost2010PropOp38
 70
     1
102
RTVSPost2010Prop39
140
1.0
102
RTVSPost2010PropOp39
 70
     1
102
RTVSPost2010Prop40
 90
        0
102
RTVSPost2010PropOp40
 70
     1
102
RTVSPost2010Prop41ColorIndex
 90
       18
102
RTVSPost2010Prop41ColorRGB
 90
        0
102
RTVSPost2010PropOp41
 70
     1
102
RTVSPost2010Prop42
 90
       50
102
RTVSPost2010PropOp42
 70
     1
102
RTVSPost2010Prop43
 90
        3
102
RTVSPost2010PropOp43
 70
     1
102
RTVSPost2010Prop44ColorIndex
 90
        5
102
RTVSPost2010Prop44ColorRGB
 90
      255
102
RTVSPost2010PropOp44
 70
     1
102
RTVSPost2010Prop45
280
     0
102
RTVSPost2010PropOp45
 70
     1
102
RTVSPost2010Prop46
 90
       50
102
RTVSPost2010PropOp46
 70
     1
102
RTVSPost2010Prop47
 90
       50
102
RTVSPost2010PropOp47
 70
     1
102
RTVSPost2010Prop48
 90
       50
102
RTVSPost2010PropOp48
 70
     1
102
RTVSPost2010Prop49
280
     0
102
RTVSPost2010PropOp49
 70
     1
102
RTVSPost2010Prop50
 90
       50
102
RTVSPost2010PropOp50
 70
     1
102
RTVSPost2010Prop51ColorIndex
 90
      256
102
RTVSPost2010Prop51ColorRGB
 90
-16777216
102
RTVSPost2010PropOp51
 70
     0
102
RTVSPost2010Prop52
140
1.0
102
RTVSPost2010PropOp52
 70
     0
102
RTVSPost2010Prop53
 90
        2
102
RTVSPost2010PropOp53
 70
     1
102
RTVSPost2010Prop54
  1
strokes_ogs.tif
102
RTVSPost2010PropOp54
 70
     1
102
RTVSPost2010Prop55
280
     0
102
RTVSPost2010PropOp55
 70
     1
102
RTVSPost2010Prop56
140
1.0
102
RTVSPost2010PropOp56
 70
     1
102
RTVSPost2010Prop57
140
1.0
102
RTVSPost2010PropOp57
 70
     1
  0
XRECORD
  5
2D1
102
{ACAD_REACTORS
330
2D0
102
}
330
2D0
100
AcDbXrecord
280
     1
102
RTVSPropertyOp0
 70
     1
102
RTVSPropertyOp1
 70
     1
102
RTVSPropertyOp2
 70
     1
102
RTVSPropertyOp3
 70
     1
102
RTVSPropertyOp4
 70
     1
102
RTVSPropertyOp5
 70
     1
102
RTVSPropertyOp6
 70
     1
102
RTVSPropertyOp7
 70
     1
102
RTVSPropertyOp8
 70
     1
102
RTVSPropertyOp9
 70
     1
102
RTVSPropertyOp10
 70
     1
102
RTVSPropertyOp11
 70
     1
102
RTVSPropertyOp12
 70
     1
102
RTVSPropertyOp13
 70
     1
102
RTVSPropertyOp14
 70
     1
102
RTVSPropertyOp15
 70
     1
102
RTVSPropertyOp16
 70
     1
102
RTVSPropertyOp17
 70
     1
102
RTVSPropertyOp18
 70
     1
102
RTVSPropertyOp19
 70
     1
102
RTVSPropertyOp20
 70
     1
102
RTVSPropertyOp21
 70
     1
102
RTVSPropertyOp22
 70
     1
102
RTVSPropertyOp23
 70
     1
102
RTVSPropertyOp24
 70
     1
102
RTVSPropertyOp25
 70
     1
102
RTVSPropertyOp26
 70
     1
102
RTVSPropertyOp27
 70
     1
102
RTVSPropertyOp28
 70
     1
102
RTVSPropertyOp29
 70
     1
102
RTVSPropertyOp30
 70
     1
102
RTVSPropertyOp31
 70
     1
102
RTVSPropertyOp32
 70
     1
102
RTVSPropertyOp33
 70
     1
102
RTVSPropertyOp34
 70
     1
102
RTVSPropertyOp35
 70
     1
102
RTVSPropertyOp36
 70
     1
102
RTVSPropertyOp37
 70
     1
102
RTVSPropertyOp38
 70
     1
102
RTVSPropertyOp39
 70
     1
102
RTVSPropertyOp40
 70
     1
102
RTVSPropertyOp41
 70
     1
102
RTVSPropertyOp42
 70
     1
102
RTVSPropertyOp43
 70
     1
102
RTVSPropertyOp44
 70
     1
102
RTVSPropertyOp45
 70
     1
102
RTVSPropertyOp46
 70
     1
102
RTVSPropertyOp47
 70
     1
102
RTVSPropertyOp48
 70
     1
102
RTVSPropertyOp49
 70
     1
102
RTVSPropertyOp50
 70
     1
102
RTVSPropertyOp51
 70
     0
102
RTVSPropertyOp52
 70
     0
102
RTVSPropertyOp53
 70
     1
102
RTVSPropertyOp54
 70
     1
102
RTVSPropertyOp55
 70
     1
102
RTVSPropertyOp56
 70
     1
102
RTVSPropertyOp57
 70
     1
102
RTVSPost2010Prop28
280
     0
102
RTVSPost2010PropOp28
 70
     1
102
RTVSPost2010Prop29
280
     1
102
RTVSPost2010PropOp29
 70
     1
102
RTVSPost2010Prop30
280
     1
102
RTVSPost2010PropOp30
 70
     1
102
RTVSPost2010Prop31
280
     0
102
RTVSPost2010PropOp31
 70
     1
102
RTVSPost2010Prop32
280
     0
102
RTVSPost2010PropOp32
 70
     1
102
RTVSPost2010Prop33
280
     0
102
RTVSPost2010PropOp33
 70
     1
102
RTVSPost2010Prop34
280
     0
102
RTVSPost2010PropOp34
 70
     1
102
RTVSPost2010Prop35
280
     0
102
RTVSPost2010PropOp35
 70
     1
102
RTVSPost2010Prop36
280
     0
102
RTVSPost2010PropOp36
 70
     1
102
RTVSPost2010Prop37
 90
       50
102
RTVSPost2010PropOp37
 70
     1
102
RTVSPost2010Prop38
140
0.0
102
RTVSPost2010PropOp38
 70
     1
102
RTVSPost2010Prop39
140
1.0
102
RTVSPost2010PropOp39
 70
     1
102
RTVSPost2010Prop40
 90
        0
102
RTVSPost2010PropOp40
 70
     1
102
RTVSPost2010Prop41ColorIndex
 90
       18
102
RTVSPost2010Prop41ColorRGB
 90
        0
102
RTVSPost2010PropOp41
 70
     1
102
RTVSPost2010Prop42
 90
       50
102
RTVSPost2010PropOp42
 70
     1
102
RTVSPost2010Prop43
 90
        3
102
RTVSPost2010PropOp43
 70
     1
102
RTVSPost2010Prop44ColorIndex
 90
        5
102
RTVSPost2010Prop44ColorRGB
 90
      255
102
RTVSPost2010PropOp44
 70
     1
102
RTVSPost2010Prop45
280
     0
102
RTVSPost2010PropOp45
 70
     1
102
RTVSPost2010Prop46
 90
       50
102
RTVSPost2010PropOp46
 70
     1
102
RTVSPost2010Prop47
 90
       50
102
RTVSPost2010PropOp47
 70
     1
102
RTVSPost2010Prop48
 90
       50
102
RTVSPost2010PropOp48
 70
     1
102
RTVSPost2010Prop49
280
     0
102
RTVSPost2010PropOp49
 70
     1
102
RTVSPost2010Prop50
 90
       50
102
RTVSPost2010PropOp50
 70
     1
102
RTVSPost2010Prop51ColorIndex
 90
      256
102
RTVSPost2010Prop51ColorRGB
 90
-16777216
102
RTVSPost2010PropOp51
 70
     0
102
RTVSPost2010Prop52
140
1.0
102
RTVSPost2010PropOp52
 70
     0
102
RTVSPost2010Prop53
 90
        2
102
RTVSPost2010PropOp53
 70
     1
102
RTVSPost2010Prop54
  1
strokes_ogs.tif
102
RTVSPost2010PropOp54
 70
     1
102
RTVSPost2010Prop55
280
     0
102
RTVSPost2010PropOp55
 70
     1
102
RTVSPost2010Prop56
140
1.0
102
RTVSPost2010PropOp56
 70
     1
102
RTVSPost2010Prop57
140
1.0
102
RTVSPost2010PropOp57
 70
     1
  0
XRECORD
  5
2C3
102
{ACAD_REACTORS
330
2C2
102
}
330
2C2
100
AcDbXrecord
280
     1
102
RTVSPropertyOp0
 70
     1
102
RTVSPropertyOp1
 70
     1
102
RTVSPropertyOp2
 70
     1
102
RTVSPropertyOp3
 70
     1
102
RTVSPropertyOp4
 70
     1
102
RTVSPropertyOp5
 70
     1
102
RTVSPropertyOp6
 70
     1
102
RTVSPropertyOp7
 70
     1
102
RTVSPropertyOp8
 70
     1
102
RTVSPropertyOp9
 70
     1
102
RTVSPropertyOp10
 70
     1
102
RTVSPropertyOp11
 70
     1
102
RTVSPropertyOp12
 70
     1
102
RTVSPropertyOp13
 70
     1
102
RTVSPropertyOp14
 70
     1
102
RTVSPropertyOp15
 70
     1
102
RTVSPropertyOp16
 70
     1
102
RTVSPropertyOp17
 70
     1
102
RTVSPropertyOp18
 70
     1
102
RTVSPropertyOp19
 70
     1
102
RTVSPropertyOp20
 70
     1
102
RTVSPropertyOp21
 70
     1
102
RTVSPropertyOp22
 70
     1
102
RTVSPropertyOp23
 70
     1
102
RTVSPropertyOp24
 70
     1
102
RTVSPropertyOp25
 70
     1
102
RTVSPropertyOp26
 70
     1
102
RTVSPropertyOp27
 70
     1
102
RTVSPropertyOp28
 70
     1
102
RTVSPropertyOp29
 70
     1
102
RTVSPropertyOp30
 70
     1
102
RTVSPropertyOp31
 70
     1
102
RTVSPropertyOp32
 70
     1
102
RTVSPropertyOp33
 70
     1
102
RTVSPropertyOp34
 70
     1
102
RTVSPropertyOp35
 70
     1
102
RTVSPropertyOp36
 70
     1
102
RTVSPropertyOp37
 70
     1
102
RTVSPropertyOp38
 70
     1
102
RTVSPropertyOp39
 70
     1
102
RTVSPropertyOp40
 70
     1
102
RTVSPropertyOp41
 70
     1
102
RTVSPropertyOp42
 70
     1
102
RTVSPropertyOp43
 70
     1
102
RTVSPropertyOp44
 70
     1
102
RTVSPropertyOp45
 70
     1
102
RTVSPropertyOp46
 70
     1
102
RTVSPropertyOp47
 70
     1
102
RTVSPropertyOp48
 70
     1
102
RTVSPropertyOp49
 70
     1
102
RTVSPropertyOp50
 70
     1
102
RTVSPropertyOp51
 70
     0
102
RTVSPropertyOp52
 70
     0
102
RTVSPropertyOp53
 70
     1
102
RTVSPropertyOp54
 70
     1
102
RTVSPropertyOp55
 70
     1
102
RTVSPropertyOp56
 70
     1
102
RTVSPropertyOp57
 70
     1
102
RTVSPost2010Prop28
280
     0
102
RTVSPost2010PropOp28
 70
     1
102
RTVSPost2010Prop29
280
     1
102
RTVSPost2010PropOp29
 70
     1
102
RTVSPost2010Prop30
280
     1
102
RTVSPost2010PropOp30
 70
     1
102
RTVSPost2010Prop31
280
     0
102
RTVSPost2010PropOp31
 70
     1
102
RTVSPost2010Prop32
280
     0
102
RTVSPost2010PropOp32
 70
     1
102
RTVSPost2010Prop33
280
     0
102
RTVSPost2010PropOp33
 70
     1
102
RTVSPost2010Prop34
280
     0
102
RTVSPost2010PropOp34
 70
     1
102
RTVSPost2010Prop35
280
     0
102
RTVSPost2010PropOp35
 70
     1
102
RTVSPost2010Prop36
280
     0
102
RTVSPost2010PropOp36
 70
     1
102
RTVSPost2010Prop37
 90
       50
102
RTVSPost2010PropOp37
 70
     1
102
RTVSPost2010Prop38
140
0.0
102
RTVSPost2010PropOp38
 70
     1
102
RTVSPost2010Prop39
140
1.0
102
RTVSPost2010PropOp39
 70
     1
102
RTVSPost2010Prop40
 90
        0
102
RTVSPost2010PropOp40
 70
     1
102
RTVSPost2010Prop41ColorIndex
 90
       18
102
RTVSPost2010Prop41ColorRGB
 90
        0
102
RTVSPost2010PropOp41
 70
     1
102
RTVSPost2010Prop42
 90
       50
102
RTVSPost2010PropOp42
 70
     1
102
RTVSPost2010Prop43
 90
        3
102
RTVSPost2010PropOp43
 70
     1
102
RTVSPost2010Prop44ColorIndex
 90
        5
102
RTVSPost2010Prop44ColorRGB
 90
      255
102
RTVSPost2010PropOp44
 70
     1
102
RTVSPost2010Prop45
280
     0
102
RTVSPost2010PropOp45
 70
     1
102
RTVSPost2010Prop46
 90
       50
102
RTVSPost2010PropOp46
 70
     1
102
RTVSPost2010Prop47
 90
       50
102
RTVSPost2010PropOp47
 70
     1
102
RTVSPost2010Prop48
 90
       50
102
RTVSPost2010PropOp48
 70
     1
102
RTVSPost2010Prop49
280
     0
102
RTVSPost2010PropOp49
 70
     1
102
RTVSPost2010Prop50
 90
       50
102
RTVSPost2010PropOp50
 70
     1
102
RTVSPost2010Prop51ColorIndex
 90
      256
102
RTVSPost2010Prop51ColorRGB
 90
-16777216
102
RTVSPost2010PropOp51
 70
     0
102
RTVSPost2010Prop52
140
1.0
102
RTVSPost2010PropOp52
 70
     0
102
RTVSPost2010Prop53
 90
        2
102
RTVSPost2010PropOp53
 70
     1
102
RTVSPost2010Prop54
  1
strokes_ogs.tif
102
RTVSPost2010PropOp54
 70
     1
102
RTVSPost2010Prop55
280
     0
102
RTVSPost2010PropOp55
 70
     1
102
RTVSPost2010Prop56
140
1.0
102
RTVSPost2010PropOp56
 70
     1
102
RTVSPost2010Prop57
140
1.0
102
RTVSPost2010PropOp57
 70
     1
  0
XRECORD
  5
2E3
102
{ACAD_REACTORS
330
2E2
102
}
330
2E2
100
AcDbXrecord
280
     1
102
RTVSPropertyOp0
 70
     1
102
RTVSPropertyOp1
 70
     1
102
RTVSPropertyOp2
 70
     1
102
RTVSPropertyOp3
 70
     1
102
RTVSPropertyOp4
 70
     1
102
RTVSPropertyOp5
 70
     1
102
RTVSPropertyOp6
 70
     1
102
RTVSPropertyOp7
 70
     1
102
RTVSPropertyOp8
 70
     1
102
RTVSPropertyOp9
 70
     1
102
RTVSPropertyOp10
 70
     1
102
RTVSPropertyOp11
 70
     1
102
RTVSPropertyOp12
 70
     1
102
RTVSPropertyOp13
 70
     1
102
RTVSPropertyOp14
 70
     1
102
RTVSPropertyOp15
 70
     1
102
RTVSPropertyOp16
 70
     1
102
RTVSPropertyOp17
 70
     1
102
RTVSPropertyOp18
 70
     1
102
RTVSPropertyOp19
 70
     1
102
RTVSPropertyOp20
 70
     1
102
RTVSPropertyOp21
 70
     1
102
RTVSPropertyOp22
 70
     1
102
RTVSPropertyOp23
 70
     1
102
RTVSPropertyOp24
 70
     1
102
RTVSPropertyOp25
 70
     1
102
RTVSPropertyOp26
 70
     1
102
RTVSPropertyOp27
 70
     1
102
RTVSPropertyOp28
 70
     1
102
RTVSPropertyOp29
 70
     1
102
RTVSPropertyOp30
 70
     1
102
RTVSPropertyOp31
 70
     1
102
RTVSPropertyOp32
 70
     1
102
RTVSPropertyOp33
 70
     1
102
RTVSPropertyOp34
 70
     1
102
RTVSPropertyOp35
 70
     1
102
RTVSPropertyOp36
 70
     1
102
RTVSPropertyOp37
 70
     1
102
RTVSPropertyOp38
 70
     1
102
RTVSPropertyOp39
 70
     1
102
RTVSPropertyOp40
 70
     1
102
RTVSPropertyOp41
 70
     1
102
RTVSPropertyOp42
 70
     1
102
RTVSPropertyOp43
 70
     1
102
RTVSPropertyOp44
 70
     1
102
RTVSPropertyOp45
 70
     1
102
RTVSPropertyOp46
 70
     1
102
RTVSPropertyOp47
 70
     1
102
RTVSPropertyOp48
 70
     1
102
RTVSPropertyOp49
 70
     1
102
RTVSPropertyOp50
 70
     1
102
RTVSPropertyOp51
 70
     0
102
RTVSPropertyOp52
 70
     0
102
RTVSPropertyOp53
 70
     1
102
RTVSPropertyOp54
 70
     1
102
RTVSPropertyOp55
 70
     1
102
RTVSPropertyOp56
 70
     1
102
RTVSPropertyOp57
 70
     1
102
RTVSPost2010Prop28
280
     0
102
RTVSPost2010PropOp28
 70
     1
102
RTVSPost2010Prop29
280
     1
102
RTVSPost2010PropOp29
 70
     1
102
RTVSPost2010Prop30
280
     1
102
RTVSPost2010PropOp30
 70
     1
102
RTVSPost2010Prop31
280
     0
102
RTVSPost2010PropOp31
 70
     1
102
RTVSPost2010Prop32
280
     0
102
RTVSPost2010PropOp32
 70
     1
102
RTVSPost2010Prop33
280
     0
102
RTVSPost2010PropOp33
 70
     1
102
RTVSPost2010Prop34
280
     0
102
RTVSPost2010PropOp34
 70
     1
102
RTVSPost2010Prop35
280
     0
102
RTVSPost2010PropOp35
 70
     1
102
RTVSPost2010Prop36
280
     0
102
RTVSPost2010PropOp36
 70
     1
102
RTVSPost2010Prop37
 90
       50
102
RTVSPost2010PropOp37
 70
     1
102
RTVSPost2010Prop38
140
0.0
102
RTVSPost2010PropOp38
 70
     1
102
RTVSPost2010Prop39
140
1.0
102
RTVSPost2010PropOp39
 70
     1
102
RTVSPost2010Prop40
 90
        0
102
RTVSPost2010PropOp40
 70
     1
102
RTVSPost2010Prop41ColorIndex
 90
       18
102
RTVSPost2010Prop41ColorRGB
 90
        0
102
RTVSPost2010PropOp41
 70
     1
102
RTVSPost2010Prop42
 90
       50
102
RTVSPost2010PropOp42
 70
     1
102
RTVSPost2010Prop43
 90
        3
102
RTVSPost2010PropOp43
 70
     1
102
RTVSPost2010Prop44ColorIndex
 90
        5
102
RTVSPost2010Prop44ColorRGB
 90
      255
102
RTVSPost2010PropOp44
 70
     1
102
RTVSPost2010Prop45
280
     0
102
RTVSPost2010PropOp45
 70
     1
102
RTVSPost2010Prop46
 90
       50
102
RTVSPost2010PropOp46
 70
     1
102
RTVSPost2010Prop47
 90
       50
102
RTVSPost2010PropOp47
 70
     1
102
RTVSPost2010Prop48
 90
       50
102
RTVSPost2010PropOp48
 70
     1
102
RTVSPost2010Prop49
280
     0
102
RTVSPost2010PropOp49
 70
     1
102
RTVSPost2010Prop50
 90
       50
102
RTVSPost2010PropOp50
 70
     1
102
RTVSPost2010Prop51ColorIndex
 90
      256
102
RTVSPost2010Prop51ColorRGB
 90
-16777216
102
RTVSPost2010PropOp51
 70
     0
102
RTVSPost2010Prop52
140
1.0
102
RTVSPost2010PropOp52
 70
     0
102
RTVSPost2010Prop53
 90
        2
102
RTVSPost2010PropOp53
 70
     1
102
RTVSPost2010Prop54
  1
strokes_ogs.tif
102
RTVSPost2010PropOp54
 70
     1
102
RTVSPost2010Prop55
280
     0
102
RTVSPost2010PropOp55
 70
     1
102
RTVSPost2010Prop56
140
1.0
102
RTVSPost2010PropOp56
 70
     1
102
RTVSPost2010Prop57
140
1.0
102
RTVSPost2010PropOp57
 70
     1
  0
ENDSEC
  0
EOF
